  0
SECTION
  2
HEADER
  9
$ACADVER
  1
AC1015
  9
$ACADMAINTVER
 70
    20
  9
$DWGCODEPAGE
  3
ANSI_1252
  9
$INSBASE
 10
0.0
 20
0.0
 30
0.0
  9
$EXTMIN
 10
1534.83026904944
 20
1004.844739815241
 30
0.0
  9
$EXTMAX
 10
1575.122167547242
 20
1011.58531819104
 30
0.0
  9
$LIMMIN
 10
0.0
 20
0.0
  9
$LIMMAX
 10
12.0
 20
9.0
  9
$ORTHOMODE
 70
     0
  9
$REGENMODE
 70
     1
  9
$FILLMODE
 70
     1
  9
$QTEXTMODE
 70
     0
  9
$MIRRTEXT
 70
     0
  9
$LTSCALE
 40
1.0
  9
$ATTMODE
 70
     1
  9
$TEXTSIZE
 40
0.09375
  9
$TRACEWID
 40
0.05
  9
$TEXTSTYLE
  7
Text
  9
$CLAYER
  8
0
  9
$CELTYPE
  6
ByLayer
  9
$CECOLOR
 62
   256
  9
$CELTSCALE
 40
1.0
  9
$DISPSILH
 70
     0
  9
$DIMSCALE
 40
0.0
  9
$DIMASZ
 40
0.125
  9
$DIMEXO
 40
0.03125
  9
$DIMDLI
 40
0.5
  9
$DIMRND
 40
0.0
  9
$DIMDLE
 40
0.0
  9
$DIMEXE
 40
0.03125
  9
$DIMTP
 40
0.0
  9
$DIMTM
 40
0.0
  9
$DIMTXT
 40
0.09375
  9
$DIMCEN
 40
0.09375
  9
$DIMTSZ
 40
0.0
  9
$DIMTOL
 70
     0
  9
$DIMLIM
 70
     0
  9
$DIMTIH
 70
     0
  9
$DIMTOH
 70
     0
  9
$DIMSE1
 70
     0
  9
$DIMSE2
 70
     0
  9
$DIMTAD
 70
     1
  9
$DIMZIN
 70
     0
  9
$DIMBLK
  1
ArchTick
  9
$DIMASO
 70
     1
  9
$DIMSHO
 70
     1
  9
$DIMPOST
  1
"
  9
$DIMAPOST
  1

  9
$DIMALT
 70
     0
  9
$DIMALTD
 70
     4
  9
$DIMALTF
 40
25.4
  9
$DIMLFAC
 40
1.0
  9
$DIMTOFL
 70
     1
  9
$DIMTVP
 40
0.0
  9
$DIMTIX
 70
     0
  9
$DIMSOXD
 70
     0
  9
$DIMSAH
 70
     0
  9
$DIMBLK1
  1

  9
$DIMBLK2
  1

  9
$DIMSTYLE
  2
BG
  9
$DIMCLRD
 70
   251
  9
$DIMCLRE
 70
   251
  9
$DIMCLRT
 70
     4
  9
$DIMTFAC
 40
1.0
  9
$DIMGAP
 40
0.03125
  9
$DIMJUST
 70
     0
  9
$DIMSD1
 70
     0
  9
$DIMSD2
 70
     0
  9
$DIMTOLJ
 70
     1
  9
$DIMTZIN
 70
     0
  9
$DIMALTZ
 70
     0
  9
$DIMALTTZ
 70
     0
  9
$DIMUPT
 70
     0
  9
$DIMDEC
 70
     4
  9
$DIMTDEC
 70
     4
  9
$DIMALTU
 70
     2
  9
$DIMALTTD
 70
     4
  9
$DIMTXSTY
  7
DIM 1
  9
$DIMAUNIT
 70
     0
  9
$DIMADEC
 70
     0
  9
$DIMALTRND
 40
0.0
  9
$DIMAZIN
 70
     2
  9
$DIMDSEP
 70
    46
  9
$DIMATFIT
 70
     3
  9
$DIMFRAC
 70
     0
  9
$DIMLDRBLK
  1

  9
$DIMLUNIT
 70
     5
  9
$DIMLWD
 70
    -2
  9
$DIMLWE
 70
    -2
  9
$DIMTMOVE
 70
     1
  9
$LUNITS
 70
     4
  9
$LUPREC
 70
     4
  9
$SKETCHINC
 40
0.1
  9
$FILLETRAD
 40
0.0
  9
$AUNITS
 70
     0
  9
$AUPREC
 70
     0
  9
$MENU
  1
.
  9
$ELEVATION
 40
0.0
  9
$PELEVATION
 40
0.0
  9
$THICKNESS
 40
0.0
  9
$LIMCHECK
 70
     0
  9
$CHAMFERA
 40
0.0
  9
$CHAMFERB
 40
0.0
  9
$CHAMFERC
 40
0.0
  9
$CHAMFERD
 40
0.0
  9
$SKPOLY
 70
     0
  9
$TDCREATE
 40
2460129.622881944
  9
$TDUCREATE
 40
2460129.789548611
  9
$TDUPDATE
 40
2460193.440069445
  9
$TDUUPDATE
 40
2460193.606736111
  9
$TDINDWG
 40
2.7657986111
  9
$TDUSRTIMER
 40
2.7657986111
  9
$USRTIMER
 70
     1
  9
$ANGBASE
 50
0.0
  9
$ANGDIR
 70
     0
  9
$PDMODE
 70
     0
  9
$PDSIZE
 40
0.0
  9
$PLINEWID
 40
0.0
  9
$SPLFRAME
 70
     0
  9
$SPLINETYPE
 70
     6
  9
$SPLINESEGS
 70
     8
  9
$HANDSEED
  5
12974
  9
$SURFTAB1
 70
     6
  9
$SURFTAB2
 70
     6
  9
$SURFTYPE
 70
     6
  9
$SURFU
 70
     6
  9
$SURFV
 70
     6
  9
$UCSBASE
  2

  9
$UCSNAME
  2

  9
$UCSORG
 10
0.0
 20
0.0
 30
0.0
  9
$UCSXDIR
 10
1.0
 20
0.0
 30
0.0
  9
$UCSYDIR
 10
0.0
 20
1.0
 30
0.0
  9
$UCSORTHOREF
  2

  9
$UCSORTHOVIEW
 70
     0
  9
$UCSORGTOP
 10
0.0
 20
0.0
 30
0.0
  9
$UCSORGBOTTOM
 10
0.0
 20
0.0
 30
0.0
  9
$UCSORGLEFT
 10
0.0
 20
0.0
 30
0.0
  9
$UCSORGRIGHT
 10
0.0
 20
0.0
 30
0.0
  9
$UCSORGFRONT
 10
0.0
 20
0.0
 30
0.0
  9
$UCSORGBACK
 10
0.0
 20
0.0
 30
0.0
  9
$PUCSBASE
  2

  9
$PUCSNAME
  2

  9
$PUCSORG
 10
0.0
 20
0.0
 30
0.0
  9
$PUCSXDIR
 10
1.0
 20
0.0
 30
0.0
  9
$PUCSYDIR
 10
0.0
 20
1.0
 30
0.0
  9
$PUCSORTHOREF
  2

  9
$PUCSORTHOVIEW
 70
     0
  9
$PUCSORGTOP
 10
0.0
 20
0.0
 30
0.0
  9
$PUCSORGBOTTOM
 10
0.0
 20
0.0
 30
0.0
  9
$PUCSORGLEFT
 10
0.0
 20
0.0
 30
0.0
  9
$PUCSORGRIGHT
 10
0.0
 20
0.0
 30
0.0
  9
$PUCSORGFRONT
 10
0.0
 20
0.0
 30
0.0
  9
$PUCSORGBACK
 10
0.0
 20
0.0
 30
0.0
  9
$USERI1
 70
     0
  9
$USERI2
 70
     0
  9
$USERI3
 70
     0
  9
$USERI4
 70
     0
  9
$USERI5
 70
     0
  9
$USERR1
 40
0.0
  9
$USERR2
 40
0.0
  9
$USERR3
 40
0.0
  9
$USERR4
 40
0.0
  9
$USERR5
 40
0.0
  9
$WORLDVIEW
 70
     1
  9
$SHADEDGE
 70
     3
  9
$SHADEDIF
 70
    70
  9
$TILEMODE
 70
     0
  9
$MAXACTVP
 70
    64
  9
$PINSBASE
 10
0.0
 20
0.0
 30
0.0
  9
$PLIMCHECK
 70
     0
  9
$PEXTMIN
 10
23.56571730506496
 20
7.495807772965772
 30
0.0
  9
$PEXTMAX
 10
32.06571730506496
 20
18.49580777296577
 30
0.0
  9
$PLIMMIN
 10
23.56551146852218
 20
7.49578915184324
  9
$PLIMMAX
 10
32.06551182896602
 20
18.49578891154735
  9
$UNITMODE
 70
     0
  9
$VISRETAIN
 70
     1
  9
$PLINEGEN
 70
     0
  9
$PSLTSCALE
 70
     1
  9
$TREEDEPTH
 70
  3020
  9
$CMLSTYLE
  2
Standard
  9
$CMLJUST
 70
     0
  9
$CMLSCALE
 40
1.0
  9
$PROXYGRAPHICS
 70
     1
  9
$MEASUREMENT
 70
     0
  9
$CELWEIGHT
370
    -1
  9
$ENDCAPS
280
     0
  9
$JOINSTYLE
280
     0
  9
$LWDISPLAY
290
     0
  9
$INSUNITS
 70
     1
  9
$HYPERLINKBASE
  1

  9
$STYLESHEET
  1

  9
$XEDIT
290
     1
  9
$CEPSNTYPE
380
     0
  9
$PSTYLEMODE
290
     1
  9
$FINGERPRINTGUID
  2
{C9DE27B7-6D4D-0142-8435-3C64294BBDC2}
  9
$VERSIONGUID
  2
{E08B0990-B56D-1C4A-904C-3E2CDDBF6E33}
  9
$EXTNAMES
290
     1
  9
$PSVPSCALE
 40
0.0
  9
$OLESTARTUP
290
     0
  0
ENDSEC
  0
SECTION
  2
CLASSES
  0
CLASS
  1
ACDBDICTIONARYWDFLT
  2
AcDbDictionaryWithDefault
  3
ObjectDBX Classes
 90
        0
280
     0
281
     0
  0
CLASS
  1
ACDBPLACEHOLDER
  2
AcDbPlaceHolder
  3
ObjectDBX Classes
 90
        0
280
     0
281
     0
  0
CLASS
  1
LAYOUT
  2
AcDbLayout
  3
ObjectDBX Classes
 90
        0
280
     0
281
     0
  0
CLASS
  1
DICTIONARYVAR
  2
AcDbDictionaryVar
  3
ObjectDBX Classes
 90
        0
280
     0
281
     0
  0
CLASS
  1
TABLESTYLE
  2
AcDbTableStyle
  3
ObjectDBX Classes
 90
     4095
280
     0
281
     0
  0
CLASS
  1
FIELD
  2
AcDbField
  3
ObjectDBX Classes
 90
    33920
280
     0
281
     0
  0
CLASS
  1
FIELDLIST
  2
AcDbFieldList
  3
ObjectDBX Classes
 90
     1152
280
     0
281
     0
  0
CLASS
  1
SORTENTSTABLE
  2
AcDbSortentsTable
  3
ObjectDBX Classes
 90
        0
280
     0
281
     0
  0
CLASS
  1
PLOTSETTINGS
  2
AcDbPlotSettings
  3
ObjectDBX Classes
 90
        0
280
     0
281
     0
  0
CLASS
  1
ACAD_EVALUATION_GRAPH
  2
AcDbEvalGraph
  3
ObjectDBX Classes
 90
     1153
280
     0
281
     0
  0
CLASS
  1
BLOCKROTATIONPARAMETER
  2
AcDbBlockRotationParameter
  3
ObjectDBX Classes
 90
    33921
280
     0
281
     0
  0
CLASS
  1
BLOCKROTATIONGRIP
  2
AcDbBlockRotationGrip
  3
ObjectDBX Classes
 90
    33921
280
     0
281
     0
  0
CLASS
  1
BLOCKGRIPLOCATIONCOMPONENT
  2
AcDbBlockGripExpr
  3
ObjectDBX Classes
 90
     1153
280
     0
281
     0
  0
CLASS
  1
BLOCKROTATEACTION
  2
AcDbBlockRotateAction
  3
ObjectDBX Classes
 90
    33921
280
     0
281
     0
  0
CLASS
  1
BLOCKLINEARPARAMETER
  2
AcDbBlockLinearParameter
  3
ObjectDBX Classes
 90
     1153
280
     0
281
     0
  0
CLASS
  1
BLOCKLINEARGRIP
  2
AcDbBlockLinearGrip
  3
ObjectDBX Classes
 90
     1153
280
     0
281
     0
  0
CLASS
  1
BLOCKSTRETCHACTION
  2
AcDbBlockStretchAction
  3
ObjectDBX Classes
 90
     1153
280
     0
281
     0
  0
CLASS
  1
ACDB_DYNAMICBLOCKPURGEPREVENTER_VERSION
  2
AcDbDynamicBlockPurgePreventer
  3
ObjectDBX Classes
 90
     1153
280
     0
281
     0
  0
CLASS
  1
ACDB_BLOCKREPRESENTATION_DATA
  2
AcDbBlockRepresentationData
  3
ObjectDBX Classes
 90
     1153
280
     0
281
     0
  0
CLASS
  1
ACAECUSTOBJ
  2
AcAeEditorObj
  3
AcAeEditorObj
 90
    33792
280
     0
281
     0
  0
CLASS
  1
ROTATIONPARAMETERENTITY
  2
AcDbBlockRotationParameterEntity
  3
ObjectDBX Classes
 90
    33793
280
     0
281
     1
  0
CLASS
  1
ACAEEEMGROBJ
  2
AcAeEEMgrObj
  3
AcAeEEMgrObj
 90
    33792
280
     0
281
     0
  0
CLASS
  1
ROTATIONGRIPENTITY
  2
AcDbBlockRotationGripEntity
  3
ObjectDBX Classes
 90
    33793
280
     0
281
     1
  0
CLASS
  1
ROTATEACTIONENTITY
  2
AcDbBlockRotateActionEntity
  3
ObjectDBX Classes
 90
    33793
280
     0
281
     1
  0
CLASS
  1
BLOCKVISIBILITYPARAMETER
  2
AcDbBlockVisibilityParameter
  3
ObjectDBX Classes
 90
    33921
280
     0
281
     0
  0
CLASS
  1
BLOCKVISIBILITYGRIP
  2
AcDbBlockVisibilityGrip
  3
ObjectDBX Classes
 90
    33921
280
     0
281
     0
  0
CLASS
  1
VISIBILITYGRIPENTITY
  2
AcDbBlockVisibilityGripEntity
  3
ObjectDBX Classes
 90
    33793
280
     0
281
     1
  0
CLASS
  1
VISIBILITYPARAMETERENTITY
  2
AcDbBlockVisibilityParameterEntity
  3
ObjectDBX Classes
 90
    33793
280
     0
281
     1
  0
CLASS
  1
MATERIAL
  2
AcDbMaterial
  3
ObjectDBX Classes
 90
     1153
280
     0
281
     0
  0
CLASS
  1
VISUALSTYLE
  2
AcDbVisualStyle
  3
ObjectDBX Classes
 90
     4095
280
     0
281
     0
  0
CLASS
  1
SCALE
  2
AcDbScale
  3
ObjectDBX Classes
 90
     1153
280
     0
281
     0
  0
CLASS
  1
MLEADERSTYLE
  2
AcDbMLeaderStyle
  3
ACDB_MLEADERSTYLE_CLASS
 90
     4095
280
     0
281
     0
  0
CLASS
  1
ACDBSECTIONVIEWSTYLE
  2
AcDbSectionViewStyle
  3
ObjectDBX Classes
 90
     1025
280
     0
281
     0
  0
CLASS
  1
ACDBDETAILVIEWSTYLE
  2
AcDbDetailViewStyle
  3
ObjectDBX Classes
 90
     1025
280
     0
281
     0
  0
CLASS
  1
EXACXREFPANELOBJECT
  2
ExAcXREFPanelObject
  3
EXAC_ESW
 90
    33793
280
     0
281
     0
  0
CLASS
  1
NPOCOLLECTION
  2
AcDbImpNonPersistentObjectsCollection
  3
ObjectDBX Classes
 90
    33921
280
     0
281
     0
  0
CLASS
  1
RAPIDRTRENDERSETTINGS
  2
AcDbRapidRTRenderSettings
  3
ObjectDBX Classes
 90
     1024
280
     0
281
     0
  0
CLASS
  1
AEC_REFEDIT_STATUS_TRACKER
  2
AecDbRefEditStatusTracker
  3
AecArchBase80|Product Desc: Autodesk Architectural Desktop 2007 |Company: Autodesk,Inc. |WEB Address: www.autodesk.com
 90
    32897
280
     0
281
     0
  0
CLASS
  1
ACDB_MTEXTOBJECTCONTEXTDATA_CLASS
  2
AcDbMTextObjectContextData
  3
ObjectDBX Classes
 90
     1153
280
     0
281
     0
  0
CLASS
  1
RASTERVARIABLES
  2
AcDbRasterVariables
  3
ISM
 90
        0
280
     0
281
     0
  0
CLASS
  1
IMAGEDEF
  2
AcDbRasterImageDef
  3
ISM
 90
        0
280
     0
281
     0
  0
CLASS
  1
IMAGEDEF_REACTOR
  2
AcDbRasterImageDefReactor
  3
ISM
 90
        1
280
     0
281
     0
  0
CLASS
  1
IMAGE
  2
AcDbRasterImage
  3
ISM
 90
     2175
280
     0
281
     1
  0
CLASS
  1
ACDB_TEXTOBJECTCONTEXTDATA_CLASS
  2
AcDbTextObjectContextData
  3
ObjectDBX Classes
 90
     1153
280
     0
281
     0
  0
CLASS
  1
WIPEOUT
  2
AcDbWipeout
  3
WipeOut|Product Desc: Object Enabler for WipeOut entity | Company: Autodesk, Inc. | WEB Address: www.autodesk.com
 90
    34943
280
     0
281
     1
  0
CLASS
  1
BLOCKFLIPPARAMETER
  2
AcDbBlockFlipParameter
  3
ObjectDBX Classes
 90
    33921
280
     0
281
     0
  0
CLASS
  1
BLOCKFLIPGRIP
  2
AcDbBlockFlipGrip
  3
ObjectDBX Classes
 90
    33921
280
     0
281
     0
  0
CLASS
  1
BLOCKFLIPACTION
  2
AcDbBlockFlipAction
  3
ObjectDBX Classes
 90
    33921
280
     0
281
     0
  0
CLASS
  1
BLOCKPOINTPARAMETER
  2
AcDbBlockPointParameter
  3
ObjectDBX Classes
 90
    33921
280
     0
281
     0
  0
CLASS
  1
BLOCKXYGRIP
  2
AcDbBlockXYGrip
  3
ObjectDBX Classes
 90
    33921
280
     0
281
     0
  0
CLASS
  1
BLOCKPOLARPARAMETER
  2
AcDbBlockPolarParameter
  3
ObjectDBX Classes
 90
    33921
280
     0
281
     0
  0
CLASS
  1
BLOCKPOLARGRIP
  2
AcDbBlockPolarGrip
  3
ObjectDBX Classes
 90
    33921
280
     0
281
     0
  0
CLASS
  1
BLOCKPOLARSTRETCHACTION
  2
AcDbBlockPolarStretchAction
  3
ObjectDBX Classes
 90
    33921
280
     0
281
     0
  0
CLASS
  1
BLOCKMOVEACTION
  2
AcDbBlockMoveAction
  3
ObjectDBX Classes
 90
    33921
280
     0
281
     0
  0
CLASS
  1
BLOCKBASEPOINTPARAMETER
  2
AcDbBlockBasepointParameter
  3
ObjectDBX Classes
 90
    33921
280
     0
281
     0
  0
CLASS
  1
MULTILEADER
  2
AcDbMLeader
  3
ACDB_MLEADER_CLASS
 90
    33793
280
     0
281
     1
  0
CLASS
  1
ACDB_MLEADEROBJECTCONTEXTDATA_CLASS
  2
AcDbMLeaderObjectContextData
  3
ObjectDBX Classes
 90
    33921
280
     0
281
     0
  0
CLASS
  1
ACDB_BLKREFOBJECTCONTEXTDATA_CLASS
  2
AcDbBlkRefObjectContextData
  3
ObjectDBX Classes
 90
     1153
280
     0
281
     0
  0
CLASS
  1
ACDB_MTEXTATTRIBUTEOBJECTCONTEXTDATA_CLASS
  2
AcDbMTextAttributeObjectContextData
  3
ObjectDBX Classes
 90
     1153
280
     0
281
     0
  0
CLASS
  1
WIPEOUTVARIABLES
  2
AcDbWipeoutVariables
  3
"WipeOut|Product Desc:     WipeOut Dbx Application|Company:          Autodesk, Inc.|WEB Address:      www.autodesk.com"
 90
        0
280
     0
281
     0
  0
CLASS
  1
ACDB_ALDIMOBJECTCONTEXTDATA_CLASS
  2
AcDbAlignedDimensionObjectContextData
  3
ObjectDBX Classes
 90
     1153
280
     0
281
     0
  0
CLASS
  1
DIMASSOC
  2
AcDbDimAssoc
  3
"AcDbDimAssoc|Product Desc:     AcDim ARX App For Dimension|Company:          Autodesk, Inc.|WEB Address:      www.autodesk.com"
 90
        0
280
     0
281
     0
  0
CLASS
  1
ACDB_HATCHSCALECONTEXTDATA_CLASS
  2
AcDbHatchScaleContextData
  3
ObjectDBX Classes
 90
     1153
280
     0
281
     0
  0
CLASS
  1
ACDB_HATCHVIEWCONTEXTDATA_CLASS
  2
AcDbHatchViewContextData
  3
ObjectDBX Classes
 90
     1153
280
     0
281
     0
  0
CLASS
  1
ACDB_LEADEROBJECTCONTEXTDATA_CLASS
  2
AcDbLeaderObjectContextData
  3
ObjectDBX Classes
 90
    33921
280
     0
281
     0
  0
CLASS
  1
ACDB_ANGDIMOBJECTCONTEXTDATA_CLASS
  2
AcDbAngularDimensionObjectContextData
  3
ObjectDBX Classes
 90
    33921
280
     0
281
     0
  0
CLASS
  1
LINEARPARAMETERENTITY
  2
AcDbBlockLinearParameterEntity
  3
ObjectDBX Classes
 90
    33793
280
     0
281
     1
  0
CLASS
  1
LINEARGRIPENTITY
  2
AcDbBlockLinearGripEntity
  3
ObjectDBX Classes
 90
    33793
280
     0
281
     1
  0
CLASS
  1
STRETCHACTIONENTITY
  2
AcDbBlockStretchActionEntity
  3
ObjectDBX Classes
 90
    33793
280
     0
281
     1
  0
CLASS
  1
ACDBASSOCPERSSUBENTMANAGER
  2
AcDbAssocPersSubentManager
  3
ObjectDBX Classes
 90
     1024
280
     0
281
     0
  0
CLASS
  1
CELLSTYLEMAP
  2
AcDbCellStyleMap
  3
ObjectDBX Classes
 90
     1152
280
     0
281
     0
  0
ENDSEC
  0
SECTION
  2
TABLES
  0
TABLE
  2
VPORT
  5
8
330
0
100
AcDbSymbolTable
 70
     1
  0
VPORT
  5
CE3
330
8
100
AcDbSymbolTableRecord
100
AcDbViewportTableRecord
  2
*Active
 70
     0
 10
0.0
 20
0.0
 11
1.0
 21
1.0
 12
1555.064066231956
 22
1008.184147669408
 13
0.0
 23
0.0
 14
0.5
 24
0.5
 15
0.5
 25
0.5
 16
0.0
 26
0.0
 36
1.0
 17
0.0
 27
0.0
 37
0.0
 40
18.30749360037461
 41
2.235294117647058
 42
50.0
 43
0.0
 44
0.0
 50
0.0
 51
0.0
 71
     0
 72
  1000
 73
     1
 74
     3
 75
     0
 76
     0
 77
     0
 78
     0
281
     0
 65
     1
110
0.0
120
0.0
130
0.0
111
1.0
121
0.0
131
0.0
112
0.0
122
1.0
132
0.0
 79
     0
146
0.0
1001
ACAD_NAV_VCDISPLAY
1070
     3
  0
ENDTAB
  0
TABLE
  2
LTYPE
  5
5
330
0
100
AcDbSymbolTable
 70
     1
  0
LTYPE
  5
14
330
5
100
AcDbSymbolTableRecord
100
AcDbLinetypeTableRecord
  2
ByBlock
 70
     0
  3

 72
    65
 73
     0
 40
0.0
  0
LTYPE
  5
15
330
5
100
AcDbSymbolTableRecord
100
AcDbLinetypeTableRecord
  2
ByLayer
 70
     0
  3

 72
    65
 73
     0
 40
0.0
  0
LTYPE
  5
16
330
5
100
AcDbSymbolTableRecord
100
AcDbLinetypeTableRecord
  2
Continuous
 70
     0
  3
Solid line
 72
    65
 73
     0
 40
0.0
  0
ENDTAB
  0
TABLE
  2
LAYER
  5
2
102
{ACAD_XDICTIONARY
360
BA
102
}
330
0
100
AcDbSymbolTable
 70
    14
  0
LAYER
  5
10
102
{ACAD_XDICTIONARY
360
EE2
102
}
330
2
100
AcDbSymbolTableRecord
100
AcDbLayerTableRecord
  2
0
 70
     0
 62
     7
  6
Continuous
370
    -3
390
F
  0
LAYER
  5
A15
330
2
100
AcDbSymbolTableRecord
100
AcDbLayerTableRecord
  2
Defpoints
 70
     0
 62
     7
  6
Continuous
290
     0
370
    -3
390
F
  0
LAYER
  5
1019
102
{ACAD_XDICTIONARY
360
101A
102
}
330
2
100
AcDbSymbolTableRecord
100
AcDbLayerTableRecord
  2
TEXT
 70
     0
 62
     4
  6
Continuous
370
    -3
390
F
  0
LAYER
  5
1249
330
2
100
AcDbSymbolTableRecord
100
AcDbLayerTableRecord
  2
2D_DIM
 70
     0
 62
     7
  6
Continuous
370
    -3
390
F
  0
LAYER
  5
1256
102
{ACAD_XDICTIONARY
360
1257
102
}
330
2
100
AcDbSymbolTableRecord
100
AcDbLayerTableRecord
  2
VPort
 70
     0
 62
   140
  6
Continuous
290
     0
370
    -3
390
F
  0
LAYER
  5
1789
102
{ACAD_XDICTIONARY
360
178A
102
}
330
2
100
AcDbSymbolTableRecord
100
AcDbLayerTableRecord
  2
Hatch
 70
     0
 62
   251
  6
Continuous
370
    -3
390
F
1001
AcAecLayerStandard
1000

1000

  0
LAYER
  5
178F
102
{ACAD_XDICTIONARY
360
1790
102
}
330
2
100
AcDbSymbolTableRecord
100
AcDbLayerTableRecord
  2
Stone
 70
     0
 62
     7
  6
Continuous
370
    -3
390
F
1001
AcAecLayerStandard
1000

1000

  0
LAYER
  5
12896
102
{ACAD_XDICTIONARY
360
12898
102
}
330
2
100
AcDbSymbolTableRecord
100
AcDbLayerTableRecord
  2
0 @ 1
 70
     0
 62
     7
  6
Continuous
370
    -3
390
F
1001
AcadAnnotativeDecomposition
1000
AnnotativeData
1002
{
1070
     1
1070
     1
1002
}
  0
LAYER
  5
1289A
102
{ACAD_XDICTIONARY
360
1289B
102
}
330
2
100
AcDbSymbolTableRecord
100
AcDbLayerTableRecord
  2
TEXT @ 1
 70
     0
 62
     4
  6
Continuous
370
    -3
390
F
1001
AcadAnnotativeDecomposition
1000
AnnotativeData
1002
{
1070
     1
1070
     1
1002
}
  0
LAYER
  5
128C2
102
{ACAD_XDICTIONARY
360
128C3
102
}
330
2
100
AcDbSymbolTableRecord
100
AcDbLayerTableRecord
  2
Hatch @ 24
 70
     0
 62
   251
  6
Continuous
370
    -3
390
F
1001
AcAecLayerStandard
1000

1000

1001
AcadAnnotativeDecomposition
1000
AnnotativeData
1002
{
1070
     1
1070
     1
1002
}
  0
LAYER
  5
128E7
102
{ACAD_XDICTIONARY
360
128E8
102
}
330
2
100
AcDbSymbolTableRecord
100
AcDbLayerTableRecord
  2
Hatch @ 4
 70
     0
 62
   251
  6
Continuous
370
    -3
390
F
1001
AcAecLayerStandard
1000

1000

1001
AcadAnnotativeDecomposition
1000
AnnotativeData
1002
{
1070
     1
1070
     1
1002
}
  0
LAYER
  5
1290C
102
{ACAD_XDICTIONARY
360
1290D
102
}
330
2
100
AcDbSymbolTableRecord
100
AcDbLayerTableRecord
  2
Hatch @ 2
 70
     0
 62
   251
  6
Continuous
370
    -3
390
F
1001
AcAecLayerStandard
1000

1000

1001
AcadAnnotativeDecomposition
1000
AnnotativeData
1002
{
1070
     1
1070
     1
1002
}
  0
LAYER
  5
12910
102
{ACAD_XDICTIONARY
360
12911
102
}
330
2
100
AcDbSymbolTableRecord
100
AcDbLayerTableRecord
  2
2D_DIM @ 2
 70
     0
 62
     7
  6
Continuous
370
    -3
390
F
1001
AcadAnnotativeDecomposition
1000
AnnotativeData
1002
{
1070
     1
1070
     1
1002
}
  0
LAYER
  5
12913
102
{ACAD_XDICTIONARY
360
12914
102
}
330
2
100
AcDbSymbolTableRecord
100
AcDbLayerTableRecord
  2
0 @ 2
 70
     0
 62
     7
  6
Continuous
370
    -3
390
F
1001
AcadAnnotativeDecomposition
1000
AnnotativeData
1002
{
1070
     1
1070
     1
1002
}
  0
ENDTAB
  0
TABLE
  2
STYLE
  5
3
330
0
100
AcDbSymbolTable
 70
     3
  0
STYLE
  5
11
330
3
100
AcDbSymbolTableRecord
100
AcDbTextStyleTableRecord
  2
Standard
 70
     0
 40
0.0
 41
1.0
 50
0.0
 71
     0
 42
0.2
  3
txt
  4

  0
STYLE
  5
1259
330
3
100
AcDbSymbolTableRecord
100
AcDbTextStyleTableRecord
  2
Text
 70
     0
 40
0.09375
 41
1.0
 50
0.0
 71
     0
 42
0.09375
  3
swisscl.ttf
  4

1001
AcadAnnotative
1000
AnnotativeData
1002
{
1070
     1
1070
     1
1002
}
1001
ACAD
1000
Swis721 LtCn BT
1071
       34
  0
STYLE
  5
D14A
330
3
100
AcDbSymbolTableRecord
100
AcDbTextStyleTableRecord
  2
DIM 1
 70
     0
 40
0.09375
 41
0.75
 50
0.0
 71
     0
 42
0.09375
  3
dim.shx
  4

1001
AcadAnnotative
1000
AnnotativeData
1002
{
1070
     1
1070
     1
1002
}
  0
ENDTAB
  0
TABLE
  2
VIEW
  5
6
330
0
100
AcDbSymbolTable
 70
     0
  0
ENDTAB
  0
TABLE
  2
UCS
  5
7
330
0
100
AcDbSymbolTable
 70
     0
  0
ENDTAB
  0
TABLE
  2
APPID
  5
9
330
0
100
AcDbSymbolTable
 70
    32
  0
APPID
  5
12
330
9
100
AcDbSymbolTableRecord
100
AcDbRegAppTableRecord
  2
ACAD
 70
     0
  0
APPID
  5
8F
330
9
100
AcDbSymbolTableRecord
100
AcDbRegAppTableRecord
  2
ACAD_PSEXT
 70
     0
  0
APPID
  5
12E
330
9
100
AcDbSymbolTableRecord
100
AcDbRegAppTableRecord
  2
AcAecLayerStandard
 70
     0
  0
APPID
  5
389
330
9
100
AcDbSymbolTableRecord
100
AcDbRegAppTableRecord
  2
PE_URL
 70
     0
  0
APPID
  5
97E
330
9
100
AcDbSymbolTableRecord
100
AcDbRegAppTableRecord
  2
AcDbAttr
 70
     0
  0
APPID
  5
A16
330
9
100
AcDbSymbolTableRecord
100
AcDbRegAppTableRecord
  2
AcDbBlockRepETag
 70
     0
  0
APPID
  5
A8A
330
9
100
AcDbSymbolTableRecord
100
AcDbRegAppTableRecord
  2
AcDbDynamicBlockTrueName
 70
     0
  0
APPID
  5
A8B
330
9
100
AcDbSymbolTableRecord
100
AcDbRegAppTableRecord
  2
AcDbDynamicBlockGUID
 70
     0
  0
APPID
  5
AAF
330
9
100
AcDbSymbolTableRecord
100
AcDbRegAppTableRecord
  2
AcDbBlockRepBTag
 70
     0
  0
APPID
  5
BAE
330
9
100
AcDbSymbolTableRecord
100
AcDbRegAppTableRecord
  2
ACAUTHENVIRON
 70
     0
  0
APPID
  5
C19
330
9
100
AcDbSymbolTableRecord
100
AcDbRegAppTableRecord
  2
ACAD_EXEMPT_FROM_CAD_STANDARDS
 70
     0
  0
APPID
  5
1021
330
9
100
AcDbSymbolTableRecord
100
AcDbRegAppTableRecord
  2
ACAD_NAV_VCDISPLAY
 70
     0
  0
APPID
  5
1054
330
9
100
AcDbSymbolTableRecord
100
AcDbRegAppTableRecord
  2
DCO15
 70
     0
  0
APPID
  5
115B
330
9
100
AcDbSymbolTableRecord
100
AcDbRegAppTableRecord
  2
ACAD_DSTYLE_DIMJAG
 70
     0
  0
APPID
  5
115C
330
9
100
AcDbSymbolTableRecord
100
AcDbRegAppTableRecord
  2
ACAD_DSTYLE_DIMTALN
 70
     0
  0
APPID
  5
115D
330
9
100
AcDbSymbolTableRecord
100
AcDbRegAppTableRecord
  2
AcadAnnotative
 70
     0
  0
APPID
  5
115E
330
9
100
AcDbSymbolTableRecord
100
AcDbRegAppTableRecord
  2
AcCmTransparency
 70
     0
  0
APPID
  5
115F
330
9
100
AcDbSymbolTableRecord
100
AcDbRegAppTableRecord
  2
AEC_XDATA_BOUND_SPACE
 70
     0
  0
APPID
  5
124A
330
9
100
AcDbSymbolTableRecord
100
AcDbRegAppTableRecord
  2
ACAD_DSTYLE_DIMRADIAL_EXTENSION
 70
     0
  0
APPID
  5
125B
330
9
100
AcDbSymbolTableRecord
100
AcDbRegAppTableRecord
  2
ACAD_DSTYLE_DIMBREAK
 70
     0
  0
APPID
  5
125C
330
9
100
AcDbSymbolTableRecord
100
AcDbRegAppTableRecord
  2
AcLayerTools
 70
     0
  0
APPID
  5
125D
330
9
100
AcDbSymbolTableRecord
100
AcDbRegAppTableRecord
  2
RAK
 70
     0
  0
APPID
  5
1A51
330
9
100
AcDbSymbolTableRecord
100
AcDbRegAppTableRecord
  2
AcadAnnoMonitorAlertIconDisabled
 70
     0
  0
APPID
  5
1C01
330
9
100
AcDbSymbolTableRecord
100
AcDbRegAppTableRecord
  2
GradientColor1ACI
 70
     0
  0
APPID
  5
1C02
330
9
100
AcDbSymbolTableRecord
100
AcDbRegAppTableRecord
  2
GradientColor2ACI
 70
     0
  0
APPID
  5
25E3
330
9
100
AcDbSymbolTableRecord
100
AcDbRegAppTableRecord
  2
REVIT
 70
     0
  0
APPID
  5
D14E
330
9
100
AcDbSymbolTableRecord
100
AcDbRegAppTableRecord
  2
ACAD_DSTYLE_DIMTEXT_FILL
 70
     0
  0
APPID
  5
1137F
330
9
100
AcDbSymbolTableRecord
100
AcDbRegAppTableRecord
  2
AcadAnnoAV
 70
     0
  0
APPID
  5
1270E
330
9
100
AcDbSymbolTableRecord
100
AcDbRegAppTableRecord
  2
RevcloudProps
 70
     0
  0
APPID
  5
12897
330
9
100
AcDbSymbolTableRecord
100
AcDbRegAppTableRecord
  2
AcadAnnotativeDecomposition
 70
     0
  0
APPID
  5
12953
330
9
100
AcDbSymbolTableRecord
100
AcDbRegAppTableRecord
  2
ACAD_MLEADERVER
 70
     0
  0
APPID
  5
12966
330
9
100
AcDbSymbolTableRecord
100
AcDbRegAppTableRecord
  2
ACAD_DSTYLE_DIMARC_LENGTH_SYMBOL
 70
     0
  0
ENDTAB
  0
TABLE
  2
DIMSTYLE
  5
A
330
0
100
AcDbSymbolTable
 70
     2
100
AcDbDimStyleTable
 71
     2
340
17CD
340
27
  0
DIMSTYLE
105
27
330
A
100
AcDbSymbolTableRecord
100
AcDbDimStyleTableRecord
  2
Standard
 70
     0
340
11
  0
DIMSTYLE
105
17CD
102
{ACAD_REACTORS
330
C56F
330
C575
330
C57B
102
}
330
A
100
AcDbSymbolTableRecord
100
AcDbDimStyleTableRecord
  2
BG
 70
     0
  3
"
 40
0.0
 41
0.125
 42
0.03125
 43
0.5
 44
0.03125
 73
     0
 74
     0
 77
     1
 79
     2
140
0.09375
141
0.09375
147
0.03125
171
     4
172
     1
176
   251
177
   251
178
     4
274
     4
277
     5
279
     1
340
D14A
342
114C
1001
ACAD_DSTYLE_DIMBREAK
1070
   391
1040
0.125
1001
AcadAnnotative
1000
AnnotativeData
1002
{
1070
     1
1070
     1
1002
}
1001
ACAD_DSTYLE_DIMJAG
1070
   388
1040
1.5
1001
ACAD_DSTYLE_DIMTALN
1070
   392
1070
     0
1001
ACAD_DSTYLE_DIMARC_LENGTH_SYMBOL
1070
   379
1070
     1
1001
ACAD_DSTYLE_DIMTEXT_FILL
1070
   376
1070
     1
1070
   377
1004
1800000001000000000000C1000000000000000000000000
  0
ENDTAB
  0
TABLE
  2
BLOCK_RECORD
  5
1
330
0
100
AcDbSymbolTable
 70
     7
  0
BLOCK_RECORD
  5
1F
102
{ACAD_XDICTIONARY
360
19A5
102
}
330
1
100
AcDbSymbolTableRecord
100
AcDbBlockTableRecord
  2
*Model_Space
340
22
  0
BLOCK_RECORD
  5
C4A1
102
{ACAD_XDICTIONARY
360
C4A2
102
}
330
1
100
AcDbSymbolTableRecord
100
AcDbBlockTableRecord
  2
*Paper_Space
340
C4EE
  0
BLOCK_RECORD
  5
114C
330
1
100
AcDbSymbolTableRecord
100
AcDbBlockTableRecord
  2
_ArchTick
340
0
102
{BLKREFS
331
10BF0
331
10BF1
331
10BF9
331
10BFA
331
10C02
331
10C03
102
}
  0
BLOCK_RECORD
  5
148A
102
{ACAD_XDICTIONARY
360
11671
102
}
330
1
100
AcDbSymbolTableRecord
100
AcDbBlockTableRecord
  2
*U1
340
0
310
2800000020000000200000000100080000000000000400000000000000000000000000000000000000000000000080000080000000808000800000008000800080800000C0C0C000C0DCC000F0CAA6000020400000206000002080000020A0000020C0000020E00000400000004020000040400000406000004080000040A0
310
000040C0000040E00000600000006020000060400000606000006080000060A0000060C0000060E00000800000008020000080400000806000008080000080A0000080C0000080E00000A0000000A0200000A0400000A0600000A0800000A0A00000A0C00000A0E00000C0000000C0200000C0400000C0600000C0800000C0
310
A00000C0C00000C0E00000E0000000E0200000E0400000E0600000E0800000E0A00000E0C00000E0E00040000000400020004000400040006000400080004000A0004000C0004000E00040200000402020004020400040206000402080004020A0004020C0004020E000404000004040200040404000404060004040800040
310
40A0004040C0004040E00040600000406020004060400040606000406080004060A0004060C0004060E00040800000408020004080400040806000408080004080A0004080C0004080E00040A0000040A0200040A0400040A0600040A0800040A0A00040A0C00040A0E00040C0000040C0200040C0400040C0600040C08000
310
40C0A00040C0C00040C0E00040E0000040E0200040E0400040E0600040E0800040E0A00040E0C00040E0E00080000000800020008000400080006000800080008000A0008000C0008000E00080200000802020008020400080206000802080008020A0008020C0008020E00080400000804020008040400080406000804080
310
008040A0008040C0008040E00080600000806020008060400080606000806080008060A0008060C0008060E00080800000808020008080400080806000808080008080A0008080C0008080E00080A0000080A0200080A0400080A0600080A0800080A0A00080A0C00080A0E00080C0000080C0200080C0400080C0600080C0
310
800080C0A00080C0C00080C0E00080E0000080E0200080E0400080E0600080E0800080E0A00080E0C00080E0E000C0000000C0002000C0004000C0006000C0008000C000A000C000C000C000E000C0200000C0202000C0204000C0206000C0208000C020A000C020C000C020E000C0400000C0402000C0404000C0406000C0
310
408000C040A000C040C000C040E000C0600000C0602000C0604000C0606000C0608000C060A000C060C000C060E000C0800000C0802000C0804000C0806000C0808000C080A000C080C000C080E000C0A00000C0A02000C0A04000C0A06000C0A08000C0A0A000C0A0C000C0A0E000C0C00000C0C02000C0C04000C0C06000
310
C0C08000C0C0A000F0FBFF00A4A0A000808080000000FF0000FF000000FFFF00FF000000FF00FF00FFFF0000FFFFFF0000000000000000000000000000000000000000000000000000000000000000000000000000000000000000000000000000000000000000000000000000000000000000000000000000000000000000
310
00000000000000000000000000000000000000000000000000000000000000000000000000000000000000000000000000000000000000000000000000000000000000000000000000000000000000000000000000000000000000000000000000000000000000000000000000000000000000000000000000000000000000
310
00000000000000000000000000000000000000000000000000000000000000000000000000000000000000000000000000000000000000000000000000000000000000000000000000000000000000000000000000000000000000000000000000000000000000000000000000000000000000000000000000000000000000
310
000000000000000000000000000000000000000000000000000000000000000000000000000000000000000000000000000000000000000000000000000000000000000000000000000000000000000000000000FBFBFBFBFBFB0000000000000000000000000000000000000000000000000000FBFBFEFEFBFB0000FEFEFE
310
FEFEFEFEFEFE000000FEFEFEFEFEFE000000000000FBFBFEFEFBFB0000FEFEFEFEFEFEFEFEFE000000FEFEFEFEFEFE000000000000FBFBFEFEFBFAFAFAFAFAFAFAFAFAFAFAFAFAFAFAFAFAFAFAFAFAFAFAFAFA0000FBFBFEFEFBFB0000FAFAFAFAFAFAFAFAFAFA0000000000000000000000000000FBFBFBFBFBFB00000000
310
FAFAFA00FAFAFAFA0000000000000000000000000000000000000000000000000000000000000000000000000000000000000000000000000000000000000000000000000000000000000000000000000000000000000000000000000000000000000000000000000000000000000000000000000000000000000000000000
310
00000000000000000000000000000000000000000000000000000000000000000000000000000000000000000000000000000000000000000000000000000000000000000000000000000000000000000000000000000000000000000000000000000000000000000000000000000000000000000000000000000000000000
310
00000000000000000000000000000000000000000000000000000000000000000000000000000000000000000000000000000000000000000000000000000000000000000000000000000000000000000000000000000000000000000000000000000000000000000000000000000000000000000000000000000000000000
310
0000000000000000000000000000000000000000000000000000000000000000000000000000000000000000000000000000000000000000
1001
AcadAnnotative
1000
AnnotativeData
1002
{
1070
     1
1070
     1
1002
}
1001
AcDbBlockRepETag
1070
     1
1071
        9
1001
AcDbDynamicBlockTrueName
1000
CMI Detail Tag
1001
AcDbDynamicBlockGUID
1000
{EEFEAADE-B8C0-614E-947A-E003EFF690E1}
1001
ACAD
1000
DesignCenter Data
1002
{
1070
     1
1070
     1
1002
}
  0
BLOCK_RECORD
  5
C5B2
330
1
100
AcDbSymbolTableRecord
100
AcDbBlockTableRecord
  2
*D2
340
0
  0
BLOCK_RECORD
  5
C5BE
330
1
100
AcDbSymbolTableRecord
100
AcDbBlockTableRecord
  2
*D3
340
0
  0
BLOCK_RECORD
  5
C5CA
330
1
100
AcDbSymbolTableRecord
100
AcDbBlockTableRecord
  2
*D4
340
0
  0
BLOCK_RECORD
  5
1172F
102
{ACAD_XDICTIONARY
360
1173B
102
}
330
1
100
AcDbSymbolTableRecord
100
AcDbBlockTableRecord
  2
*U5
340
0
102
{BLKREFS
331
C581
102
}
1001
AcDbBlockRepBTag
1070
     1
1005
148A
  0
BLOCK_RECORD
  5
1289D
102
{ACAD_XDICTIONARY
360
12971
102
}
330
1
100
AcDbSymbolTableRecord
100
AcDbBlockTableRecord
  2
*U6
340
0
102
{BLKREFS
331
1290F
102
}
  0
ENDTAB
  0
ENDSEC
  0
SECTION
  2
BLOCKS
  0
BLOCK
  5
20
330
1F
100
AcDbEntity
  8
0
100
AcDbBlockBegin
  2
*Model_Space
 70
     0
 10
0.0
 20
0.0
 30
0.0
  3
*Model_Space
  1

  0
ENDBLK
  5
21
330
1F
100
AcDbEntity
  8
0
100
AcDbBlockEnd
  0
BLOCK
  5
C4A4
330
C4A1
100
AcDbEntity
 67
     1
  8
0
100
AcDbBlockBegin
  2
*Paper_Space
 70
     0
 10
0.0
 20
0.0
 30
0.0
  3
*Paper_Space
  1

  0
ENDBLK
  5
C4ED
330
C4A1
100
AcDbEntity
 67
     1
  8
0
100
AcDbBlockEnd
  0
BLOCK
  5
114D
330
114C
100
AcDbEntity
  8
0
100
AcDbBlockBegin
  2
_ArchTick
 70
     0
 10
0.0
 20
0.0
 30
0.0
  3
_ArchTick
  1

  0
LWPOLYLINE
  5
114E
330
114C
100
AcDbEntity
  8
0
  6
ByBlock
 62
     0
100
AcDbPolyline
 90
        2
 70
     0
 43
0.15
 10
-0.5
 20
-0.5
 10
0.5
 20
0.5
  0
ENDBLK
  5
114F
330
114C
100
AcDbEntity
  8
0
100
AcDbBlockEnd
  0
BLOCK
  5
1496
330
148A
100
AcDbEntity
  8
0
100
AcDbBlockBegin
  2
*U1
 70
     3
 10
0.0
 20
0.0
 30
0.0
  3
*U1
  1

  0
CIRCLE
  5
11668
330
148A
100
AcDbEntity
  8
0
 62
     2
100
AcDbCircle
 10
0.2542788370913573
 20
0.0
 30
0.0
 40
0.2542788370913567
1001
AcDbBlockRepETag
1070
     1
1071
        1
1005
11668
  0
LWPOLYLINE
  5
11669
330
148A
100
AcDbEntity
  8
0
 62
     2
100
AcDbPolyline
 90
        4
 70
     1
 43
0.0
 10
0.0000000000002753
 20
-0.2542788370913547
 10
0.5085576741828178
 20
-0.2542788370913547
 10
0.5085576741828178
 20
0.2542788370913547
 10
0.0000000000002753
 20
0.2542788370913547
1001
AcDbBlockRepETag
1070
     1
1071
        2
1005
11669
  0
LWPOLYLINE
  5
1166A
330
148A
100
AcDbEntity
  8
0
 62
     2
100
AcDbPolyline
 90
        2
 70
     0
 43
0.0
 10
0.5085576741828178
 20
0.0
 10
0.0
 20
0.0
1001
AcDbBlockRepETag
1070
     1
1071
        3
1005
1166A
  0
LINE
  5
1166B
330
148A
100
AcDbEntity
  8
0
 62
     3
100
AcDbLine
 10
0.5085576741828178
 20
0.0
 30
0.0
 11
3.403996544038419
 21
0.0
 31
0.0
1001
AcDbBlockRepETag
1070
     1
1071
        4
1005
1166B
  0
ATTDEF
  5
1166C
330
148A
100
AcDbEntity
  8
0
 62
     4
100
AcDbText
 10
-0.2058390920832653
 20
0.0279939907322238
 30
0.0
 40
0.1823732953389054
  1
X
 41
0.9
  7
Text
 72
     1
 11
0.2610771776150109
 21
0.0279939907322238
 31
0.0
100
AcDbAttributeDefinition
  3
Enter Detail Number
  2
Detail_Num
 70
     0
1001
AcDbBlockRepETag
1070
     1
1071
        5
1005
0
  0
ATTDEF
  5
1166D
330
148A
100
AcDbEntity
  8
0
 62
     4
100
AcDbText
 10
-0.3085678416377496
 20
-0.1893436552956036
 30
0.0
 40
0.1823732953389054
  1
X
 41
0.9
  7
Text
 72
     1
 11
0.2521941883258449
 21
-0.1893436552956036
 31
0.0
100
AcDbAttributeDefinition
  3
Enter Drawing Number
  2
Drawing_Num
 70
     0
1001
AcDbBlockRepETag
1070
     1
1071
        6
1005
0
  0
ATTDEF
  5
1166E
330
148A
100
AcDbEntity
  8
0
 62
     3
100
AcDbText
 10
0.9332873416710365
 20
0.0416804652273193
 30
0.0
 40
0.2084266232444634
  1
DETAIL
  7
Text
100
AcDbAttributeDefinition
  3
Enter Description
  2
Detail
 70
     0
1001
AcDbBlockRepETag
1070
     1
1071
        7
1005
0
  0
ATTDEF
  5
1166F
330
148A
100
AcDbEntity
  8
0
 62
     4
100
AcDbText
 10
2.233693645015167
 20
0.0367707984042882
 30
0.0
 40
0.125
  1
@ XXX
  7
Text
100
AcDbAttributeDefinition
  3
Enter Detail Description
  2
Location
 70
     0
1001
AcDbBlockRepETag
1070
     1
1071
       13
1005
0
  0
ATTDEF
  5
11670
330
148A
100
AcDbEntity
  8
0
 62
     4
100
AcDbText
 10
1.512679918637475
 20
-0.1667492719808532
 30
0.0
 40
0.0781599837166738
  1
XX"=1'-0"
  7
Text
100
AcDbAttributeDefinition
  3
Enter Scale
  2
Scale
 70
     0
1001
AcDbBlockRepETag
1070
     1
1071
        8
1005
0
  0
ENDBLK
  5
14A3
330
148A
100
AcDbEntity
  8
0
100
AcDbBlockEnd
  0
BLOCK
  5
C5B3
330
C5B2
100
AcDbEntity
  8
0
100
AcDbBlockBegin
  2
*D2
 70
     1
 10
0.0
 20
0.0
 30
0.0
  3
*D2
  1

  0
LINE
  5
10BED
330
C5B2
100
AcDbEntity
  8
2D_DIM
 62
   251
370
    -2
100
AcDbLine
 10
1569.484767780144
 20
1010.29227501755
 30
0.0
 11
1569.484767780144
 21
1011.315228905325
 31
0.0
  0
LINE
  5
10BEE
330
C5B2
100
AcDbEntity
  8
2D_DIM
 62
   251
370
    -2
100
AcDbLine
 10
1570.484765596104
 20
1009.292277201589
 30
0.0
 11
1570.484765596104
 21
1011.315228905325
 31
0.0
  0
LINE
  5
10BEF
330
C5B2
100
AcDbEntity
  8
2D_DIM
 62
   251
370
    -2
100
AcDbLine
 10
1569.484767780144
 20
1011.252728905326
 30
0.0
 11
1570.484765596104
 21
1011.252728905326
 31
0.0
  0
INSERT
  5
10BF0
330
C5B2
100
AcDbEntity
  8
2D_DIM
 62
   251
370
    -2
100
AcDbBlockReference
  2
_ArchTick
 10
1569.484767780144
 20
1011.252728905326
 30
0.0
 41
0.25
 42
0.25
 43
0.25
 50
180.0
  0
INSERT
  5
10BF1
330
C5B2
100
AcDbEntity
  8
2D_DIM
 62
   251
370
    -2
100
AcDbBlockReference
  2
_ArchTick
 10
1570.484765596104
 20
1011.252728905326
 30
0.0
 41
0.25
 42
0.25
 43
0.25
  0
MTEXT
  5
10BF2
330
C5B2
100
AcDbEntity
  8
2D_DIM
 62
     4
100
AcDbMText
 10
1569.984766688124
 20
1011.426836048183
 30
0.0
 40
0.1875
 41
0.0
 71
     5
 72
     1
  1
\A1;1"
  7
DIM 1
 73
     1
 44
1.0
1001
ACAD
1000
MTEXTBEGIN
1070
    73
1070
     1
1070
    44
1040
1.0
1070
    74
1070
     0
1000
MTEXTEND
1000
ACAD_MTEXT_BBRT
1070
    91
1071
        3
1070
    46
1040
1.25
1070
    64
1071
-1027028792
1070
    65
1000

1070
    66
1000

1070
   442
1071
        0
1000
ACAD_MTEXT_BERT
  0
POINT
  5
10BF3
330
C5B2
100
AcDbEntity
  8
Defpoints
 62
     0
100
AcDbPoint
 10
1569.484767780144
 20
1010.229775017549
 30
0.0
  0
POINT
  5
10BF4
330
C5B2
100
AcDbEntity
  8
Defpoints
 62
     0
100
AcDbPoint
 10
1570.484765596104
 20
1009.229777201589
 30
0.0
  0
POINT
  5
10BF5
330
C5B2
100
AcDbEntity
  8
Defpoints
 62
     0
100
AcDbPoint
 10
1570.484765596104
 20
1011.252728905326
 30
0.0
  0
ENDBLK
  5
C5B4
330
C5B2
100
AcDbEntity
  8
0
100
AcDbBlockEnd
  0
BLOCK
  5
C5BF
330
C5BE
100
AcDbEntity
  8
0
100
AcDbBlockBegin
  2
*D3
 70
     1
 10
0.0
 20
0.0
 30
0.0
  3
*D3
  1

  0
LINE
  5
10BF6
330
C5BE
100
AcDbEntity
  8
2D_DIM
 62
   251
370
    -2
100
AcDbLine
 10
1569.547267780144
 20
1010.22977501755
 30
0.0
 11
1571.780548707939
 21
1010.22977501755
 31
0.0
  0
LINE
  5
10BF7
330
C5BE
100
AcDbEntity
  8
2D_DIM
 62
   251
370
    -2
100
AcDbLine
 10
1570.547265596105
 20
1009.22977720159
 30
0.0
 11
1571.780548707939
 21
1009.22977720159
 31
0.0
  0
LINE
  5
10BF8
330
C5BE
100
AcDbEntity
  8
2D_DIM
 62
   251
370
    -2
100
AcDbLine
 10
1571.718048707939
 20
1010.22977501755
 30
0.0
 11
1571.718048707939
 21
1009.22977720159
 31
0.0
  0
INSERT
  5
10BF9
330
C5BE
100
AcDbEntity
  8
2D_DIM
 62
   251
370
    -2
100
AcDbBlockReference
  2
_ArchTick
 10
1571.718048707939
 20
1010.22977501755
 30
0.0
 41
0.25
 42
0.25
 43
0.25
 50
90.0
  0
INSERT
  5
10BFA
330
C5BE
100
AcDbEntity
  8
2D_DIM
 62
   251
370
    -2
100
AcDbBlockReference
  2
_ArchTick
 10
1571.718048707939
 20
1009.22977720159
 30
0.0
 41
0.25
 42
0.25
 43
0.25
 50
270.0
  0
MTEXT
  5
10BFB
330
C5BE
100
AcDbEntity
  8
2D_DIM
 62
     4
100
AcDbMText
 10
1571.543941565082
 20
1009.729776109569
 30
0.0
 40
0.1875
 41
0.0
 71
     5
 72
     1
  1
\A1;1"
  7
DIM 1
 11
0.0000000000000001
 21
1.0
 31
0.0
 73
     1
 44
1.0
1001
ACAD
1000
MTEXTBEGIN
1070
    73
1070
     1
1070
    44
1040
1.0
1070
    74
1070
     0
1000
MTEXTEND
1000
ACAD_MTEXT_BBRT
1070
    91
1071
        3
1070
    46
1040
1.25
1070
    64
1071
-1027028792
1070
    65
1000

1070
    66
1000

1070
   442
1071
        0
1000
ACAD_MTEXT_BERT
  0
POINT
  5
10BFC
330
C5BE
100
AcDbEntity
  8
Defpoints
 62
     0
100
AcDbPoint
 10
1569.484767780145
 20
1010.22977501755
 30
0.0
  0
POINT
  5
10BFD
330
C5BE
100
AcDbEntity
  8
Defpoints
 62
     0
100
AcDbPoint
 10
1570.484765596105
 20
1009.22977720159
 30
0.0
  0
POINT
  5
10BFE
330
C5BE
100
AcDbEntity
  8
Defpoints
 62
     0
100
AcDbPoint
 10
1571.718048707939
 20
1009.22977720159
 30
0.0
  0
ENDBLK
  5
C5C0
330
C5BE
100
AcDbEntity
  8
0
100
AcDbBlockEnd
  0
BLOCK
  5
C5CB
330
C5CA
100
AcDbEntity
  8
0
100
AcDbBlockBegin
  2
*D4
 70
     1
 10
0.0
 20
0.0
 30
0.0
  3
*D4
  1

  0
LINE
  5
10BFF
330
C5CA
100
AcDbEntity
  8
2D_DIM
 62
   251
370
    -2
100
AcDbLine
 10
1569.422267780145
 20
1010.22977501755
 30
0.0
 11
1569.154934320255
 21
1010.22977501755
 31
0.0
  0
LINE
  5
10C00
330
C5CA
100
AcDbEntity
  8
2D_DIM
 62
   251
370
    -2
100
AcDbLine
 10
1569.422267767485
 20
1007.229621463439
 30
0.0
 11
1569.154934320255
 21
1007.229621463439
 31
0.0
  0
LINE
  5
10C01
330
C5CA
100
AcDbEntity
  8
2D_DIM
 62
   251
370
    -2
100
AcDbLine
 10
1569.217434320255
 20
1010.22977501755
 30
0.0
 11
1569.217434320255
 21
1007.229621463439
 31
0.0
  0
INSERT
  5
10C02
330
C5CA
100
AcDbEntity
  8
2D_DIM
 62
   251
370
    -2
100
AcDbBlockReference
  2
_ArchTick
 10
1569.217434320255
 20
1010.22977501755
 30
0.0
 41
0.25
 42
0.25
 43
0.25
 50
90.0
  0
INSERT
  5
10C03
330
C5CA
100
AcDbEntity
  8
2D_DIM
 62
   251
370
    -2
100
AcDbBlockReference
  2
_ArchTick
 10
1569.217434320255
 20
1007.229621463439
 30
0.0
 41
0.25
 42
0.25
 43
0.25
 50
270.0
  0
MTEXT
  5
10C04
330
C5CA
100
AcDbEntity
  8
2D_DIM
 62
     4
100
AcDbMText
 10
1569.043327177398
 20
1008.729698240494
 30
0.0
 40
0.1875
 41
0.0
 71
     5
 72
     1
  1
\A1;3"
  7
DIM 1
 11
0.0000000000000001
 21
1.0
 31
0.0
 73
     1
 44
1.0
1001
ACAD
1000
MTEXTBEGIN
1070
    73
1070
     1
1070
    44
1040
1.0
1070
    74
1070
     0
1000
MTEXTEND
1000
ACAD_MTEXT_BBRT
1070
    91
1071
        3
1070
    46
1040
1.25
1070
    64
1071
-1027028792
1070
    65
1000

1070
    66
1000

1070
   442
1071
        0
1000
ACAD_MTEXT_BERT
  0
POINT
  5
10C05
330
C5CA
100
AcDbEntity
  8
Defpoints
 62
     0
100
AcDbPoint
 10
1569.484767780145
 20
1010.22977501755
 30
0.0
  0
POINT
  5
10C06
330
C5CA
100
AcDbEntity
  8
Defpoints
 62
     0
100
AcDbPoint
 10
1569.484767767485
 20
1007.229621463439
 30
0.0
  0
POINT
  5
10C07
330
C5CA
100
AcDbEntity
  8
Defpoints
 62
     0
100
AcDbPoint
 10
1569.217434320255
 20
1007.229621463439
 30
0.0
  0
ENDBLK
  5
C5CC
330
C5CA
100
AcDbEntity
  8
0
100
AcDbBlockEnd
  0
BLOCK
  5
11730
330
1172F
100
AcDbEntity
  8
0
100
AcDbBlockBegin
  2
*U5
 70
     3
 10
0.0
 20
0.0
 30
0.0
  3
*U5
  1

  0
CIRCLE
  5
11732
330
1172F
100
AcDbEntity
  8
0
 62
     2
100
AcDbCircle
 10
0.2542788370913573
 20
0.0
 30
0.0
 40
0.2542788370913567
1001
AcDbBlockRepETag
1070
     1
1071
        1
1005
11732
  0
LWPOLYLINE
  5
11733
330
1172F
100
AcDbEntity
  8
0
 62
     2
100
AcDbPolyline
 90
        4
 70
     1
 43
0.0
 10
0.0000000000002753
 20
-0.2542788370913547
 10
0.5085576741828178
 20
-0.2542788370913547
 10
0.5085576741828178
 20
0.2542788370913547
 10
0.0000000000002753
 20
0.2542788370913547
1001
AcDbBlockRepETag
1070
     1
1071
        2
1005
11733
  0
LWPOLYLINE
  5
11734
330
1172F
100
AcDbEntity
  8
0
 62
     2
100
AcDbPolyline
 90
        2
 70
     0
 43
0.0
 10
0.5085576741828178
 20
0.0
 10
0.0
 20
0.0
1001
AcDbBlockRepETag
1070
     1
1071
        3
1005
11734
  0
LINE
  5
11735
330
1172F
100
AcDbEntity
  8
0
 62
     3
100
AcDbLine
 10
0.5085576741828178
 20
0.0
 30
0.0
 11
5.38047463375938
 21
0.0
 31
0.0
1001
AcDbBlockRepETag
1070
     1
1071
        4
1005
11735
  0
ATTDEF
  5
11736
330
1172F
100
AcDbEntity
  8
0
 62
     4
100
AcDbText
 10
0.2102014817920935
 20
0.0279939907322238
 30
0.0
 40
0.1823732953389054
  1
X
 41
0.9
  7
Text
 72
     1
 11
0.2610771776150109
 21
0.0279939907322238
 31
0.0
100
AcDbAttributeDefinition
  3
Enter Detail Number
  2
Detail_Num
 70
     0
1001
AcDbBlockRepETag
1070
     1
1071
        5
1005
0
  0
ATTDEF
  5
11737
330
1172F
100
AcDbEntity
  8
0
 62
     4
100
AcDbText
 10
0.2013184925029274
 20
-0.1893436552956036
 30
0.0
 40
0.1823732953389054
  1
X
 41
0.9
  7
Text
 72
     1
 11
0.2521941883258449
 21
-0.1893436552956036
 31
0.0
100
AcDbAttributeDefinition
  3
Enter Drawing Number
  2
Drawing_Num
 70
     0
1001
AcDbBlockRepETag
1070
     1
1071
        6
1005
0
  0
ATTDEF
  5
11738
330
1172F
100
AcDbEntity
  8
0
 62
     3
100
AcDbText
 10
0.9332873416710365
 20
0.0416804652273193
 30
0.0
 40
0.2084266232444634
  1
DETAIL
  7
Text
100
AcDbAttributeDefinition
  3
Enter Description
  2
Detail
 70
     0
1001
AcDbBlockRepETag
1070
     1
1071
        7
1005
0
  0
ATTDEF
  5
11739
330
1172F
100
AcDbEntity
  8
0
 62
     4
100
AcDbText
 10
2.233693645015167
 20
0.0367707984042882
 30
0.0
 40
0.125
  1
@ XXX
  7
Text
100
AcDbAttributeDefinition
  3
Enter Detail Description
  2
Location
 70
     0
1001
AcDbBlockRepETag
1070
     1
1071
       13
1005
0
  0
ATTDEF
  5
1173A
330
1172F
100
AcDbEntity
  8
0
 62
     4
100
AcDbText
 10
1.512679918637475
 20
-0.1667492719808532
 30
0.0
 40
0.0781599837166738
  1
XX"=1'-0"
  7
Text
100
AcDbAttributeDefinition
  3
Enter Scale
  2
Scale
 70
     0
1001
AcDbBlockRepETag
1070
     1
1071
        8
1005
0
  0
ENDBLK
  5
11731
330
1172F
100
AcDbEntity
  8
0
100
AcDbBlockEnd
  0
BLOCK
  5
1289E
330
1289D
100
AcDbEntity
  8
0
100
AcDbBlockBegin
  2
*U6
 70
     1
 10
0.0
 20
0.0
 30
0.0
  3
*U6
  1

  0
HATCH
  5
128A0
102
{ACAD_XDICTIONARY
360
128A1
102
}
330
1289D
100
AcDbEntity
  8
Hatch @ 24
100
AcDbHatch
 10
0.0
 20
0.0
 30
0.0
210
0.0
220
0.0
230
1.0
  2
ANSI38
 70
     0
 71
     0
 91
        1
 92
        1
 93
        6
 72
     1
 10
1569.484769964184
 20
1010.229772833509
 11
1570.484765596104
 21
1009.229777201589
 72
     1
 10
1570.484765596104
 20
1009.229777201589
 11
1570.484765596104
 21
1007.229621459218
 72
     1
 10
1570.484765596104
 20
1007.229621459218
 11
1534.830269101912
 21
1007.22962160967
 72
     1
 10
1534.830269101912
 20
1007.22962160967
 11
1534.83026904944
 21
1009.906398154514
 72
     1
 10
1534.83026904944
 20
1009.906398154514
 11
1534.830269101912
 21
1010.229621459218
 72
     1
 10
1534.830269101912
 20
1010.229621459218
 11
1569.484769964184
 21
1010.229772833509
 97
        0
 75
     1
 76
     1
 52
0.0
 41
1.0
 77
     0
 78
     2
 53
45.0
 43
-8560.377711585973
 44
3721.965933429855
 45
-2.121320343559642
 46
2.121320343559642
 79
     0
 53
135.0
 43
-8560.377711585973
 44
3721.965933429855
 45
-6.363961030678927
 46
2.121320343559642
 79
     2
 49
7.5
 49
-4.5
 98
        1
 10
1559.075753655417
 20
1009.547021611755
1001
GradientColor1ACI
1070
     5
1001
GradientColor2ACI
1070
     2
1001
ACAD
1010
0.0
1020
0.0
1030
0.0
1001
AcadAnnotative
1000
AnnotativeData
1002
{
1070
     1
1070
     0
1002
}
  0
HATCH
  5
128C5
102
{ACAD_XDICTIONARY
360
128C6
102
}
330
1289D
100
AcDbEntity
  8
Hatch @ 4
100
AcDbHatch
 10
0.0
 20
0.0
 30
0.0
210
0.0
220
0.0
230
1.0
  2
ANSI38
 70
     0
 71
     0
 91
        1
 92
        1
 93
        6
 72
     1
 10
1569.484769964184
 20
1010.229772833509
 11
1570.484765596104
 21
1009.229777201589
 72
     1
 10
1570.484765596104
 20
1009.229777201589
 11
1570.484765596104
 21
1007.229621459218
 72
     1
 10
1570.484765596104
 20
1007.229621459218
 11
1534.830269101912
 21
1007.22962160967
 72
     1
 10
1534.830269101912
 20
1007.22962160967
 11
1534.83026904944
 21
1009.906398154514
 72
     1
 10
1534.83026904944
 20
1009.906398154514
 11
1534.830269101912
 21
1010.229621459218
 72
     1
 10
1534.830269101912
 20
1010.229621459218
 11
1569.484769964184
 21
1010.229772833509
 97
        0
 75
     1
 76
     1
 52
0.0
 41
1.0
 77
     0
 78
     2
 53
45.0
 43
-8560.377711585973
 44
3721.965933429855
 45
-0.3535533905932738
 46
0.3535533905932738
 79
     0
 53
135.0
 43
-8560.377711585973
 44
3721.965933429855
 45
-1.060660171779821
 46
0.3535533905932738
 79
     2
 49
1.25
 49
-0.75
 98
        1
 10
1559.075753655417
 20
1009.547021611755
1001
GradientColor1ACI
1070
     5
1001
GradientColor2ACI
1070
     2
1001
ACAD
1010
0.0
1020
0.0
1030
0.0
1001
AcadAnnotative
1000
AnnotativeData
1002
{
1070
     1
1070
     0
1002
}
  0
HATCH
  5
128EA
102
{ACAD_XDICTIONARY
360
128EB
102
}
330
1289D
100
AcDbEntity
  8
Hatch @ 2
100
AcDbHatch
 10
0.0
 20
0.0
 30
0.0
210
0.0
220
0.0
230
1.0
  2
ANSI38
 70
     0
 71
     0
 91
        1
 92
        1
 93
        6
 72
     1
 10
1569.484769964184
 20
1010.229772833509
 11
1570.484765596104
 21
1009.229777201589
 72
     1
 10
1570.484765596104
 20
1009.229777201589
 11
1570.484765596104
 21
1007.229621459218
 72
     1
 10
1570.484765596104
 20
1007.229621459218
 11
1534.830269101912
 21
1007.22962160967
 72
     1
 10
1534.830269101912
 20
1007.22962160967
 11
1534.83026904944
 21
1009.906398154514
 72
     1
 10
1534.83026904944
 20
1009.906398154514
 11
1534.830269101912
 21
1010.229621459218
 72
     1
 10
1534.830269101912
 20
1010.229621459218
 11
1569.484769964184
 21
1010.229772833509
 97
        0
 75
     1
 76
     1
 52
0.0
 41
1.0
 77
     0
 78
     2
 53
45.0
 43
-713.364809298831
 44
333.34267464542
 45
-0.1767766952966369
 46
0.1767766952966369
 79
     0
 53
135.0
 43
-713.364809298831
 44
333.34267464542
 45
-0.5303300858899106
 46
0.1767766952966369
 79
     2
 49
0.625
 49
-0.375
 98
        1
 10
1559.075753655417
 20
1009.547021611755
1001
GradientColor1ACI
1070
     5
1001
GradientColor2ACI
1070
     2
1001
ACAD
1010
0.0
1020
0.0
1030
0.0
1001
AcadAnnotative
1000
AnnotativeData
1002
{
1070
     1
1070
     0
1002
}
  0
ENDBLK
  5
1289F
330
1289D
100
AcDbEntity
  8
0
100
AcDbBlockEnd
  0
ENDSEC
  0
SECTION
  2
ENTITIES
  0
LWPOLYLINE
  5
C56D
102
{ACAD_REACTORS
330
C571
330
C57D
102
}
330
1F
100
AcDbEntity
  8
Stone
100
AcDbPolyline
 90
        6
 70
     0
 43
0.0
 10
1569.484767780144
 20
1010.229775017549
 10
1534.830269101912
 20
1010.229621459218
 10
1534.83026904944
 20
1009.906398154514
 10
1534.830269101912
 20
1007.22962160967
 10
1570.484765596104
 20
1007.229621459218
 10
1570.484765596104
 20
1009.229777201589
  0
LINE
  5
C56E
102
{ACAD_REACTORS
330
C571
330
C577
102
}
330
1F
100
AcDbEntity
  8
0
100
AcDbLine
 10
1570.484765596104
 20
1009.229777201589
 30
0.0
 11
1569.484767780144
 21
1010.229775017549
 31
0.0
  0
DIMENSION
  5
C56F
102
{ACAD_XDICTIONARY
360
C570
102
}
102
{ACAD_REACTORS
330
C571
102
}
330
1F
100
AcDbEntity
  8
2D_DIM @ 2
100
AcDbDimension
  2
*D2
 10
1570.484765596104
 20
1011.252728905326
 30
0.0
 11
1569.984766688124
 21
1011.426836048183
 31
0.0
 70
    32
 71
     5
 42
0.9999978159601141
  3
BG
100
AcDbAlignedDimension
 13
1569.484767780144
 23
1010.229775017549
 33
0.0
 14
1570.484765596104
 24
1009.229777201589
 34
0.0
100
AcDbRotatedDimension
1001
AcadAnnotative
1000
AnnotativeData
1002
{
1070
     1
1070
     0
1002
}
1001
ACAD
1000
DSTYLE
1002
{
1070
    40
1040
2.0
1070
   279
1070
     1
1070
   289
1070
     3
1070
   174
1070
     0
1070
   175
1070
     0
1070
   172
1070
     1
1002
}
  0
DIMENSION
  5
C575
102
{ACAD_XDICTIONARY
360
C576
102
}
102
{ACAD_REACTORS
330
C577
102
}
330
1F
100
AcDbEntity
  8
2D_DIM @ 2
100
AcDbDimension
  2
*D3
 10
1571.718048707939
 20
1009.22977720159
 30
0.0
 11
1571.543941565082
 21
1009.729776109569
 31
0.0
 70
    32
 71
     5
 42
0.9999978159600004
  3
BG
100
AcDbAlignedDimension
 13
1569.484767780144
 23
1010.229775017549
 33
0.0
 14
1570.484765596104
 24
1009.229777201589
 34
0.0
 50
270.0
100
AcDbRotatedDimension
1001
AcadAnnotative
1000
AnnotativeData
1002
{
1070
     1
1070
     0
1002
}
1001
ACAD
1000
DSTYLE
1002
{
1070
    40
1040
2.0
1070
   279
1070
     1
1070
   289
1070
     3
1070
   174
1070
     0
1070
   175
1070
     0
1070
   172
1070
     1
1002
}
  0
DIMENSION
  5
C57B
102
{ACAD_XDICTIONARY
360
C57C
102
}
102
{ACAD_REACTORS
330
C57D
102
}
330
1F
100
AcDbEntity
  8
2D_DIM @ 2
100
AcDbDimension
  2
*D4
 10
1569.217434320255
 20
1007.229621463439
 30
0.0
 11
1569.043327177398
 21
1008.729698240494
 31
0.0
 70
    32
 71
     5
 42
3.00015355411142
  3
BG
100
AcDbAlignedDimension
 13
1569.484767780144
 23
1010.229775017549
 33
0.0
 14
1569.484767767484
 24
1007.229621463438
 34
0.0
 50
270.0
100
AcDbRotatedDimension
1001
AcadAnnotative
1000
AnnotativeData
1002
{
1070
     1
1070
     0
1002
}
1001
ACAD
1000
DSTYLE
1002
{
1070
    40
1040
2.0
1070
   279
1070
     1
1070
   289
1070
     3
1070
   174
1070
     0
1070
   175
1070
     0
1070
   172
1070
     1
1002
}
  0
INSERT
  5
C581
102
{ACAD_XDICTIONARY
360
C582
102
}
330
1F
100
AcDbEntity
  8
0 @ 2
100
AcDbBlockReference
 66
     1
  2
*U5
 10
1567.051455596603
 20
1005.226158070878
 30
0.0
 41
1.5
 42
1.5
 43
1.5
  0
ATTRIB
  5
C58C
102
{ACAD_XDICTIONARY
360
C58D
102
}
330
C581
100
AcDbEntity
  8
0
 62
     4
100
AcDbText
 10
1567.274552347423
 20
1005.268149057437
 30
0.0
 40
0.2735599430083581
  1
D1
 41
0.9
  7
Text
 72
     1
 11
1567.44307136736
 21
1005.268149057437
 31
0.0
100
AcDbAttribute
  2
Detail_Num
 70
     0
  0
ATTRIB
  5
C591
102
{ACAD_XDICTIONARY
360
C592
102
}
330
C581
100
AcDbEntity
  8
0
 62
     4
100
AcDbText
 10
1567.429746879406
 20
1004.942142587655
 30
0.0
 40
0.1875
  1

 41
0.9
  7
Text
 72
     1
 11
1567.429746879406
 21
1004.942142587655
 31
0.0
100
AcDbAttribute
  2
Drawing_Num
 70
     0
  0
ATTRIB
  5
C596
102
{ACAD_XDICTIONARY
360
C597
102
}
330
C581
100
AcDbEntity
  8
0
 62
     3
100
AcDbText
 10
1568.451386613913
 20
1005.288678769057
 30
0.0
 40
0.3126399348666951
  1
3" THICK STONE WITH 1" x 1" CHAMFER
  7
Text
100
AcDbAttribute
  2
Detail
 70
     0
  0
ATTRIB
  5
C59B
102
{ACAD_XDICTIONARY
360
C59C
102
}
330
C581
100
AcDbEntity
  8
0
 62
     4
100
AcDbText
 10
1570.401996068798
 20
1005.281314268277
 30
0.0
 40
0.1875
  1

  7
Text
100
AcDbAttribute
  2
Location
 70
     0
  0
ATTRIB
  5
C5A0
102
{ACAD_XDICTIONARY
360
C5A1
102
}
330
C581
100
AcDbEntity
  8
0
 62
     4
100
AcDbText
 10
1569.320475476004
 20
1004.976034163532
 30
0.0
 40
0.1172399755750107
  1
 
  7
Text
100
AcDbAttribute
  2
Scale
 70
     0
  0
ATTRIB
  5
C5A5
102
{ACAD_XDICTIONARY
360
C5A6
102
}
330
C581
100
AcDbEntity
  8
0
 62
     4
100
AcDbText
 10
1571.175836369536
 20
1004.979692610015
 30
0.0
 40
0.140625
  1
 
  7
Text
100
AcDbAttribute
  2
Arch't_Ref
 70
     0
  0
SEQEND
  5
C5AA
330
C581
100
AcDbEntity
  8
0 @ 2
  0
INSERT
  5
1290F
330
1F
100
AcDbEntity
  8
Hatch
100
AcDbBlockReference
  2
*U6
 10
0.0
 20
0.0
 30
0.0
1001
AcadAnnotativeDecomposition
1000
AnnotativeData
1002
{
1070
     1
1070
     1
1002
}
  0
VIEWPORT
  5
C4A5
102
{ACAD_XDICTIONARY
360
12969
102
}
330
C4A1
100
AcDbEntity
 67
     1
  8
0
100
AcDbViewport
 10
35.10099184155816
 20
13.98587613328285
 30
0.0
 40
26.27395756986747
 41
15.47822252878331
 68
     1
 69
     1
 12
35.10099184155816
 22
13.98587613328285
 13
0.0
 23
0.0
 14
0.5
 24
0.5
 15
0.5
 25
0.5
 16
0.0
 26
0.0
 36
1.0
 17
0.0
 27
0.0
 37
0.0
 42
50.0
 43
0.0
 44
0.0
 45
15.47822252878331
 50
0.0
 51
0.0
 72
  1000
 90
   557152
  1

281
     0
 71
     1
 74
     0
110
0.0
120
0.0
130
0.0
111
1.0
121
0.0
131
0.0
112
0.0
122
1.0
132
0.0
 79
     0
146
0.0
  0
LWPOLYLINE
  5
C4A6
330
C4A1
100
AcDbEntity
 67
     1
  8
0
100
AcDbPolyline
 90
        4
 70
     1
 43
0.0
 10
23.56571730506496
 20
18.49580777296577
 10
23.56571730506496
 20
7.495807772965775
 10
32.06571730506496
 20
7.495807772965772
 10
32.06571730506496
 20
18.49580777296577
  0
LWPOLYLINE
  5
C4A7
330
C4A1
100
AcDbEntity
 67
     1
  8
0
100
AcDbPolyline
 90
        8
 70
     1
 43
0.0
 10
23.78841674036281
 20
18.10549321001342
 10
23.78841674036281
 20
7.886122335918145
 42
0.4142135623730951
 10
23.95544131683621
 20
7.719097759444757
 10
31.67599329329371
 20
7.719097759444753
 42
0.4142135623730951
 10
31.84301786976711
 20
7.886122335918141
 10
31.84301786976712
 20
18.10549321001342
 42
0.4142135623730951
 10
31.67599329329371
 20
18.27251778648681
 10
23.95544131683621
 20
18.27251778648681
 42
0.4142135623730951
  0
TEXT
  5
C4A8
102
{ACAD_XDICTIONARY
360
C4A9
102
}
330
C4A1
100
AcDbEntity
 67
     1
  8
0 @ 1
100
AcDbText
 10
27.9895116776816
 20
8.952660772730059
 30
0.0
 40
0.09375
  1
DESCRIPTION:
  7
Text
100
AcDbText
1001
AcDbBlockRepETag
1070
     1
1071
       81
1005
0
1001
AcadAnnotative
1000
AnnotativeData
1002
{
1070
     1
1070
     0
1002
}
  0
MTEXT
  5
C4AD
102
{ACAD_XDICTIONARY
360
C4AE
102
}
330
C4A1
100
AcDbEntity
 67
     1
  8
0 @ 1
100
AcDbMText
 10
28.36755634873536
 20
8.791996505043254
 30
0.0
 40
0.09375
 41
2.752946888488472
 71
     1
 72
     5
  1
\A1;3" THICK STONE WITH 1 X 1" CHAMFER
  7
Text
 73
     1
 44
1.0
1001
AcadAnnotative
1000
AnnotativeData
1002
{
1070
     1
1070
     0
1002
}
1001
ACAD
1000
ACAD_MTEXT_COLUMN_INFO_BEGIN
1070
    75
1070
     2
1070
    79
1070
     0
1070
    76
1070
     1
1070
    78
1070
     0
1070
    48
1040
2.752946888488472
1070
    49
1040
0.078740157480315
1070
    50
1070
     1
1040
0.0
1000
ACAD_MTEXT_COLUMN_INFO_END
1000
MTEXTBEGIN
1070
    73
1070
     1
1070
    44
1040
1.0
1070
    74
1070
     0
1000
MTEXTEND
  0
LWPOLYLINE
  5
C4B2
330
C4A1
100
AcDbEntity
 67
     1
  8
0
100
AcDbPolyline
 90
        8
 70
     1
 43
0.0
 10
27.98951167768153
 20
9.124821864214613
 10
31.62031843446927
 20
9.124821864214613
 42
-0.4142135623730951
 10
31.73166815211819
 20
9.013472146565693
 10
31.73166815211819
 20
8.568073275969954
 42
-0.4142135623730951
 10
31.62031843446927
 20
8.456723558321034
 10
27.98951167768153
 20
8.456723558321034
 42
-0.4142135623730951
 10
27.87816196003257
 20
8.568073275969954
 10
27.87816196003257
 20
9.013472146565693
 42
-0.4142135623730951
  0
LWPOLYLINE
  5
C4B3
330
C4A1
100
AcDbEntity
 67
     1
  8
0
100
AcDbPolyline
 90
        8
 70
     1
 43
0.0
 10
27.98951167768153
 20
7.830447477093663
 10
29.04733399534634
 20
7.830447477093663
 42
0.4142135623730951
 10
29.15868371299528
 20
7.941797194742591
 10
29.15868371299528
 20
8.234090203571049
 42
0.4142135623730951
 10
29.04733399534634
 20
8.345439921219977
 10
27.98951167768153
 20
8.345439921219977
 42
0.4142135623730951
 10
27.87816196003257
 20
8.234090203571049
 10
27.87816196003257
 20
7.941797194742591
 42
0.4142135623730951
  0
TEXT
  5
C4B4
102
{ACAD_XDICTIONARY
360
C4B5
102
}
330
C4A1
100
AcDbEntity
 67
     1
  8
0 @ 1
100
AcDbText
 10
27.9895116776816
 20
8.182910669446833
 30
0.0
 40
0.09375
  1
DRAWN BY:
  7
Text
100
AcDbText
1001
AcDbBlockRepETag
1070
     1
1071
       87
1005
0
1001
AcadAnnotative
1000
AnnotativeData
1002
{
1070
     1
1070
     0
1002
}
  0
TEXT
  5
C4B9
102
{ACAD_XDICTIONARY
360
C4BA
102
}
330
C4A1
100
AcDbEntity
 67
     1
  8
0 @ 1
100
AcDbText
 10
28.49411296598566
 20
8.017001632627916
 30
0.0
 40
0.09375
  1
LLB
  7
Text
100
AcDbText
1001
AcDbBlockRepETag
1070
     1
1071
       64
1005
0
1001
AcadAnnotative
1000
AnnotativeData
1002
{
1070
     1
1070
     0
1002
}
  0
LWPOLYLINE
  5
C4BE
330
C4A1
100
AcDbEntity
 67
     1
  8
0
100
AcDbPolyline
 90
        8
 70
     1
 43
0.0
 10
29.38138314829317
 20
7.830447477093663
 10
30.22844696385762
 20
7.830447477093663
 42
0.4142135623730951
 10
30.33979668150655
 20
7.941797194742591
 10
30.33979668150655
 20
8.234090203571049
 42
0.4142135623730951
 10
30.22844696385762
 20
8.345439921219977
 10
29.38138314829317
 20
8.345439921219977
 42
0.4142135623730951
 10
29.2700334306442
 20
8.234090203571049
 10
29.2700334306442
 20
7.941797194742591
 42
0.4142135623730951
  0
TEXT
  5
C4BF
102
{ACAD_XDICTIONARY
360
C4C0
102
}
330
C4A1
100
AcDbEntity
 67
     1
  8
0 @ 1
100
AcDbText
 10
29.38138314829324
 20
8.182910669446833
 30
0.0
 40
0.09375
  1
SCALE:
  7
Text
100
AcDbText
1001
AcDbBlockRepETag
1070
     1
1071
       87
1005
0
1001
AcadAnnotative
1000
AnnotativeData
1002
{
1070
     1
1070
     0
1002
}
  0
LINE
  5
C4CB
330
C4A1
100
AcDbEntity
 67
     1
  8
0
100
AcDbLine
 10
24.00976645801173
 20
9.124821864214727
 30
0.0
 11
27.65681224238364
 21
9.124821864214723
 31
0.0
  0
LINE
  5
C4CC
330
C4A1
100
AcDbEntity
 67
     1
  8
0
100
AcDbLine
 10
27.76681224238364
 20
9.014821864214724
 30
0.0
 11
27.76681224238364
 21
7.940447477093677
 31
0.0
  0
ARC
  5
C4CD
330
C4A1
100
AcDbEntity
 67
     1
  8
0
100
AcDbCircle
 10
27.65681224238364
 20
9.014821864214724
 30
0.0
 40
0.11
100
AcDbArc
 50
0.0
 51
90.0
  0
ARC
  5
C4CE
330
C4A1
100
AcDbEntity
 67
     1
  8
0
100
AcDbCircle
 10
27.65681224238364
 20
7.940447477093677
 30
0.0
 40
0.11
100
AcDbArc
 50
270.0
 51
0.0
  0
LINE
  5
C4CF
330
C4A1
100
AcDbEntity
 67
     1
  8
0
100
AcDbLine
 10
23.89976645801173
 20
7.94044747709368
 30
0.0
 11
23.89976645801173
 21
9.014821864214727
 31
0.0
  0
ARC
  5
C4D0
330
C4A1
100
AcDbEntity
 67
     1
  8
0
100
AcDbCircle
 10
24.00976645801173
 20
9.014821864214727
 30
0.0
 40
0.11
100
AcDbArc
 50
90.0
 51
180.0
  0
LINE
  5
C4D1
330
C4A1
100
AcDbEntity
 67
     1
  8
0
100
AcDbLine
 10
24.00976645801173
 20
7.830447477093681
 30
0.0
 11
27.65681224238364
 21
7.830447477093677
 31
0.0
  0
ARC
  5
C4D2
330
C4A1
100
AcDbEntity
 67
     1
  8
0
100
AcDbCircle
 10
24.00976645801173
 20
7.94044747709368
 30
0.0
 40
0.11
100
AcDbArc
 50
180.0
 51
270.0
  0
LWPOLYLINE
  5
C4D3
330
C4A1
100
AcDbEntity
 67
     1
  8
0
100
AcDbPolyline
 90
        8
 70
     1
 43
0.0
 10
30.56249611680444
 20
7.830447477093663
 10
31.62031843446925
 20
7.830447477093663
 42
0.4142135623730951
 10
31.73166815211819
 20
7.941797194742591
 10
31.73166815211819
 20
8.234090203571049
 42
0.4142135623730951
 10
31.62031843446925
 20
8.345439921219977
 10
30.56249611680444
 20
8.345439921219977
 42
0.4142135623730951
 10
30.45114639915548
 20
8.234090203571049
 10
30.45114639915548
 20
7.941797194742591
 42
0.4142135623730951
  0
TEXT
  5
C4D4
102
{ACAD_XDICTIONARY
360
C4D5
102
}
330
C4A1
100
AcDbEntity
 67
     1
  8
0 @ 1
100
AcDbText
 10
30.56249611680451
 20
8.182910669446833
 30
0.0
 40
0.09375
  1
DATE:
  7
Text
100
AcDbText
1001
AcDbBlockRepETag
1070
     1
1071
       87
1005
0
1001
AcadAnnotative
1000
AnnotativeData
1002
{
1070
     1
1070
     0
1002
}
  0
TEXT
  5
C4D9
102
{ACAD_XDICTIONARY
360
C4DA
102
}
330
C4A1
100
AcDbEntity
 67
     1
  8
0 @ 1
100
AcDbText
 10
31.06709740510857
 20
8.017001632627916
 30
0.0
 40
0.09375
  1
8.31.2023
  7
Text
100
AcDbText
1001
AcDbBlockRepETag
1070
     1
1071
       64
1005
0
1001
AcadAnnotative
1000
AnnotativeData
1002
{
1070
     1
1070
     0
1002
}
  0
MTEXT
  5
C4DE
102
{ACAD_XDICTIONARY
360
C4DF
102
}
330
C4A1
100
AcDbEntity
 67
     1
  8
TEXT
100
AcDbMText
 10
25.91435910493277
 20
8.852343202874287
 30
0.0
 40
0.09375
 41
53.61509567167013
 71
     1
 72
     5
  1
{\C0;101 E. CULPEPER STREET, SUITE 101\PCULPEPER, VA 22701\PPHONE: 540.825.9044 \PWWW.BLACKHILLGRANITES.COM}
  7
Text
 73
     1
 44
1.0
1001
AcadAnnotative
1000
AnnotativeData
1002
{
1070
     1
1070
     0
1002
}
1001
ACAD
1000
ACAD_MTEXT_COLUMN_INFO_BEGIN
1070
    75
1070
     2
1070
    79
1070
     0
1070
    76
1070
     1
1070
    78
1070
     0
1070
    48
1040
53.61509567167013
1070
    49
1040
0.9375
1070
    50
1070
     1
1040
0.0
1000
ACAD_MTEXT_COLUMN_INFO_END
1000
MTEXTBEGIN
1070
    73
1070
     1
1070
    44
1040
1.0
1070
    74
1070
     0
1000
MTEXTEND
  0
MTEXT
  5
C4E2
102
{ACAD_XDICTIONARY
360
C4E3
102
}
330
C4A1
100
AcDbEntity
 67
     1
  8
TEXT @ 1
100
AcDbMText
 10
24.07254384287488
 20
9.500566179508439
 30
0.0
 40
0.09375
 41
7.603449450418835
 71
     1
 72
     5
  1
BLACKHILL GRANITES DOES NOT MANUFACTURE OR PROVIDE ANCHORS OR ENGINEERING SERVICES. TYPICAL ANCHOR TYPES AND DIMENSIONS ARE PROVIDED FOR EXAMPLE ONLY. FINAL SPECIFICATIONS AND DETAILS SHOULD BE APPROVED BY A LICENSED ENGINEER.
  7
Text
 73
     1
 44
1.0
1001
AcadAnnotative
1000
AnnotativeData
1002
{
1070
     1
1070
     0
1002
}
1001
ACAD
1000
ACAD_MTEXT_COLUMN_INFO_BEGIN
1070
    75
1070
     2
1070
    79
1070
     0
1070
    76
1070
     1
1070
    78
1070
     0
1070
    48
1040
7.603449450418835
1070
    49
1040
0.46875
1070
    50
1070
     1
1040
0.3539044072617692
1000
ACAD_MTEXT_COLUMN_INFO_END
1000
MTEXTBEGIN
1070
    73
1070
     1
1070
    44
1040
1.0
1070
    74
1070
     0
1000
MTEXTEND
  0
VIEWPORT
  5
C4E7
102
{ACAD_XDICTIONARY
360
C4E8
102
}
330
C4A1
100
AcDbEntity
 67
     1
  8
VPort
100
AcDbViewport
 10
27.61716330047308
 20
13.15218850420737
 30
0.0
 40
5.325867398739774
 41
4.057836451649556
 68
     2
 69
     2
 12
1570.429164663893
 22
1008.203432130854
 13
0.0
 23
0.0
 14
0.5
 24
0.5
 15
0.5
 25
0.5
 16
0.0
 26
0.0
 36
1.0
 17
0.0
 27
0.0
 37
0.0
 42
50.0
 43
0.0
 44
0.0
 45
8.115672903299113
 50
0.0
 51
0.0
 72
  1000
341
12896
341
1289A
341
128C2
341
128E7
 90
   835680
  1

281
     0
 71
     1
 74
     0
110
0.0
120
0.0
130
0.0
111
1.0
121
0.0
131
0.0
112
0.0
122
1.0
132
0.0
 79
     0
146
0.0
  0
IMAGE
  5
F78F
330
C4A1
100
AcDbEntity
 67
     1
  8
0
 62
   255
 92
      140
310
8C00000001000000840000000600000005000000BABFFAE462F13740606DC1C729DD1F400000000000000000BABFFAE462F1374058DE462C84FA214000000000000000004CCF59C8EFD8394058DE462C84FA214000000000000000004CCF59C8EFD83940606DC1C729DD1F400000000000000000BABFFAE462F13740606DC1
310
C729DD1F400000000000000000
100
AcDbRasterImage
 90
        0
 10
23.94291525956917
 20
7.965979691677915
 30
0.0
 11
0.0025841160554358
 21
0.0
 31
0.0
 12
0.0
 22
0.0025841160554358
 32
0.0
 13
737.0
 23
396.0
340
F6D8
 70
    15
280
     0
281
    50
282
    50
283
     0
360
F790
 71
     1
 91
        2
 14
-0.5
 24
-0.5
 14
736.5
 24
395.5
  0
TEXT
  5
11CFA
102
{ACAD_XDICTIONARY
360
11CFB
102
}
330
C4A1
100
AcDbEntity
 67
     1
  8
0 @ 1
100
AcDbText
 10
29.7609844365973
 20
8.017001632627916
 30
0.0
 40
0.09375
  1
6" = 1'-0"
  7
Text
100
AcDbText
1001
AcDbBlockRepETag
1070
     1
1071
       64
1005
0
1001
AcadAnnotative
1000
AnnotativeData
1002
{
1070
     1
1070
     0
1002
}
  0
ENDSEC
  0
SECTION
  2
OBJECTS
  0
DICTIONARY
  5
C
330
0
100
AcDbDictionary
281
     1
  3
ACAD_2007HEADERVARS_RT
350
12918
  3
ACAD_ASSOCPERSSUBENTMANAGER
350
1283D
  3
ACAD_CIP_PREVIOUS_PRODUCT_INFO
350
E07
  3
ACAD_COLOR
350
73
  3
ACAD_DETAILVIEWSTYLE
350
E0C
  3
ACAD_FIELDLIST
350
11B
  3
ACAD_GROUP
350
D
  3
ACAD_IMAGE_DICT
350
1241
  3
ACAD_IMAGE_VARS
350
1242
  3
ACAD_LAST_SAVED_VERSION_INFO
350
EE1
  3
ACAD_LAYOUT
350
1A
  3
ACAD_MATERIAL
350
72
  3
ACAD_MLEADERSTYLE
350
DC4
  3
ACAD_MLINESTYLE
350
17
  3
ACAD_PLOTSETTINGS
350
19
  3
ACAD_PLOTSTYLENAME
350
E
  3
ACAD_SCALELIST
350
DA2
  3
ACAD_SECTIONVIEWSTYLE
350
E09
  3
ACAD_TABLESTYLE
350
86
  3
ACAD_VISUALSTYLE
350
D6F
  3
ACAD_WIPEOUT_VARS
350
17D8
  3
ACDB_RECOMPOSE_DATA
350
12916
  3
AcDbVariableDictionary
350
66
  3
AcDsDecomposeData
350
12920
  3
AEC_PROPERTY_SET_DEFS
350
1031
  3
ASE_INDEX_DICTIONARY
350
113A
  3
DWGPROPS
350
12917
  0
DICTIONARY
  5
BA
330
2
100
AcDbDictionary
280
     1
281
     1
  3
ACAD_LAYERFILTERS
360
663
  3
ACAD_LAYERSTATES
360
BB
  3
ACLYDICTIONARY
360
662
  0
DICTIONARY
  5
EE2
330
10
100
AcDbDictionary
280
     1
281
     1
  3
ADSK_XREC_LAYER_RECONCILED
360
EE3
  0
DICTIONARY
  5
101A
330
1019
100
AcDbDictionary
280
     1
281
     1
  0
DICTIONARY
  5
1257
330
1256
100
AcDbDictionary
280
     1
281
     1
  0
DICTIONARY
  5
178A
330
1789
100
AcDbDictionary
280
     1
281
     1
  0
DICTIONARY
  5
1790
330
178F
100
AcDbDictionary
280
     1
281
     1
  0
DICTIONARY
  5
12898
330
12896
100
AcDbDictionary
280
     1
281
     1
  3
ASDK_XREC_ANNO_SCALE_INFO
360
12899
  0
DICTIONARY
  5
1289B
330
1289A
100
AcDbDictionary
280
     1
281
     1
  3
ASDK_XREC_ANNO_SCALE_INFO
360
1289C
  0
DICTIONARY
  5
128C3
330
128C2
100
AcDbDictionary
280
     1
281
     1
  3
ASDK_XREC_ANNO_SCALE_INFO
360
128C4
  0
DICTIONARY
  5
128E8
330
128E7
100
AcDbDictionary
280
     1
281
     1
  3
ASDK_XREC_ANNO_SCALE_INFO
360
128E9
  0
DICTIONARY
  5
1290D
330
1290C
100
AcDbDictionary
280
     1
281
     1
  3
ASDK_XREC_ANNO_SCALE_INFO
360
1290E
  0
DICTIONARY
  5
12911
330
12910
100
AcDbDictionary
280
     1
281
     1
  3
ASDK_XREC_ANNO_SCALE_INFO
360
12912
  0
DICTIONARY
  5
12914
330
12913
100
AcDbDictionary
280
     1
281
     1
  3
ASDK_XREC_ANNO_SCALE_INFO
360
12915
  0
DICTIONARY
  5
19A5
330
1F
100
AcDbDictionary
280
     1
281
     1
  3
ACAD_SORTENTS
360
19A6
  0
DICTIONARY
  5
C4A2
330
C4A1
100
AcDbDictionary
280
     1
281
     1
  3
ACAD_SORTENTS
360
C4A3
  0
DICTIONARY
  5
11671
330
148A
100
AcDbDictionary
280
     1
281
     1
  3
ACAD_ENHANCEDBLOCK
360
11672
  3
AcDbBlockTableRecordData
360
12964
  3
AcDbDynamicBlockRoundTripPurgePreventer
360
11680
  0
DICTIONARY
  5
1173B
330
1172F
100
AcDbDictionary
280
     1
281
     1
  3
AcDbBlockTableRecordData
360
1296F
  0
DICTIONARY
  5
12971
330
1289D
100
AcDbDictionary
280
     1
281
     1
  3
AcDbBlockTableRecordData
360
12972
  0
DICTIONARY
  5
128A1
330
128A0
100
AcDbDictionary
280
     1
281
     1
  3
AcDbContextDataManager
360
128A2
  0
DICTIONARY
  5
128C6
330
128C5
100
AcDbDictionary
280
     1
281
     1
  3
AcDbContextDataManager
360
128C7
  0
DICTIONARY
  5
128EB
330
128EA
100
AcDbDictionary
280
     1
281
     1
  3
AcDbContextDataManager
360
128EC
  0
DICTIONARY
  5
C570
330
C56F
100
AcDbDictionary
280
     1
281
     1
  3
ACAD_DIMASSOC
360
C571
  3
AcDbContextDataManager
360
C572
  0
DICTIONARY
  5
C576
330
C575
100
AcDbDictionary
280
     1
281
     1
  3
ACAD_DIMASSOC
360
C577
  3
AcDbContextDataManager
360
C578
  0
DICTIONARY
  5
C57C
330
C57B
100
AcDbDictionary
280
     1
281
     1
  3
ACAD_DIMASSOC
360
C57D
  3
AcDbContextDataManager
360
C57E
  0
DICTIONARY
  5
C582
330
C581
100
AcDbDictionary
280
     1
281
     1
  3
AcDbBlockRepresentation
360
C583
  3
AcDbContextDataManager
360
C589
  0
DICTIONARY
  5
C58D
330
C58C
100
AcDbDictionary
280
     1
281
     1
  3
AcDbContextDataManager
360
C58E
  0
DICTIONARY
  5
C592
330
C591
100
AcDbDictionary
280
     1
281
     1
  3
AcDbContextDataManager
360
C593
  0
DICTIONARY
  5
C597
330
C596
100
AcDbDictionary
280
     1
281
     1
  3
AcDbContextDataManager
360
C598
  0
DICTIONARY
  5
C59C
330
C59B
100
AcDbDictionary
280
     1
281
     1
  3
AcDbContextDataManager
360
C59D
  0
DICTIONARY
  5
C5A1
330
C5A0
100
AcDbDictionary
280
     1
281
     1
  3
AcDbContextDataManager
360
C5A2
  0
DICTIONARY
  5
C5A6
330
C5A5
100
AcDbDictionary
280
     1
281
     1
  3
AcDbContextDataManager
360
C5A7
  0
DICTIONARY
  5
12969
330
C4A5
100
AcDbDictionary
280
     1
281
     1
  3
ACAD_XREC_ROUNDTRIP
360
1296A
  0
DICTIONARY
  5
C4A9
330
C4A8
100
AcDbDictionary
280
     1
281
     1
  3
AcDbContextDataManager
360
C4AA
  0
DICTIONARY
  5
C4AE
330
C4AD
100
AcDbDictionary
280
     1
281
     1
  3
AcDbContextDataManager
360
C4AF
  0
DICTIONARY
  5
C4B5
330
C4B4
100
AcDbDictionary
280
     1
281
     1
  3
AcDbContextDataManager
360
C4B6
  0
DICTIONARY
  5
C4BA
330
C4B9
100
AcDbDictionary
280
     1
281
     1
  3
AcDbContextDataManager
360
C4BB
  0
DICTIONARY
  5
C4C0
330
C4BF
100
AcDbDictionary
280
     1
281
     1
  3
AcDbContextDataManager
360
C4C1
  0
DICTIONARY
  5
C4D5
330
C4D4
100
AcDbDictionary
280
     1
281
     1
  3
AcDbContextDataManager
360
C4D6
  0
DICTIONARY
  5
C4DA
330
C4D9
100
AcDbDictionary
280
     1
281
     1
  3
AcDbContextDataManager
360
C4DB
  0
DICTIONARY
  5
C4DF
330
C4DE
100
AcDbDictionary
280
     1
281
     1
  3
AcDbContextDataManager
360
C4E0
  0
DICTIONARY
  5
C4E3
330
C4E2
100
AcDbDictionary
280
     1
281
     1
  3
AcDbContextDataManager
360
C4E4
  0
DICTIONARY
  5
C4E8
330
C4E7
100
AcDbDictionary
280
     1
281
     1
  3
ACAD_XREC_ROUNDTRIP
360
1296B
  3
ASDK_XREC_ANNOTATION_SCALE_INFO
360
C4E9
  0
IMAGEDEF_REACTOR
  5
F790
330
F78F
100
AcDbRasterImageDefReactor
 90
        2
330
F78F
  0
DICTIONARY
  5
11CFB
330
11CFA
100
AcDbDictionary
280
     1
281
     1
  3
AcDbContextDataManager
360
11CFC
  0
DICTIONARY
  5
12918
102
{ACAD_REACTORS
330
C
102
}
330
C
100
AcDbDictionary
281
     1
  3
DIMARCSYM
350
12919
  3
DIMTFILL
350
1291A
  0
ACDBASSOCPERSSUBENTMANAGER
  5
1283D
102
{ACAD_REACTORS
330
C
102
}
330
C
100
AcDbAssocPersSubentManager
 90
        1
 90
        3
 90
        0
 90
        2
 90
        0
 90
        0
 90
        0
 90
        0
290
     0
  0
XRECORD
  5
E07
102
{ACAD_REACTORS
330
C
102
}
330
C
100
AcDbXrecord
280
     1
300
ACD
300
2024
300

  0
DICTIONARY
  5
73
102
{ACAD_REACTORS
330
C
102
}
330
C
100
AcDbDictionary
281
     1
  0
DICTIONARY
  5
E0C
102
{ACAD_REACTORS
330
C
102
}
330
C
100
AcDbDictionary
281
     1
  3
Imperial24
350
E0D
  0
FIELDLIST
  5
11B
102
{ACAD_REACTORS
330
C
102
}
330
C
100
AcDbIdSet
 90
        0
100
AcDbFieldList
  0
DICTIONARY
  5
D
102
{ACAD_REACTORS
330
C
102
}
330
C
100
AcDbDictionary
281
     1
  0
DICTIONARY
  5
1241
102
{ACAD_REACTORS
330
C
102
}
330
C
100
AcDbDictionary
281
     1
  3
2023 BHGS_LOGO
350
F6D8
  0
RASTERVARIABLES
  5
1242
102
{ACAD_REACTORS
330
C
102
}
330
C
100
AcDbRasterVariables
 90
        0
 70
     1
 71
     1
 72
     5
  0
XRECORD
  5
EE1
102
{ACAD_REACTORS
330
C
102
}
330
C
100
AcDbXrecord
280
     1
300
{E08B0990-B56D-1C4A-904C-3E2CDDBF6E33}
301
{D54DCFDE-F059-6B4A-AA46-0FA4190CEC49}
302
{E08B0990-B56D-1C4A-904C-3E2CDDBF6E33}
303
E:\Documents\work\drafting\Current\Blackhill Granites\Design Details\[14] EDGE PROFILE 1-1 CHAMFER.dxf
  0
DICTIONARY
  5
1A
102
{ACAD_REACTORS
330
C
102
}
330
C
100
AcDbDictionary
281
     1
  3
EDGE PROFILE 1-1 CHAMFER
350
C4EE
  3
Model
350
22
  0
DICTIONARY
  5
72
102
{ACAD_REACTORS
330
C
102
}
330
C
100
AcDbDictionary
281
     1
  3
ByBlock
350
D6D
  3
ByLayer
350
D6C
  3
Global
350
D6E
  0
DICTIONARY
  5
DC4
102
{ACAD_REACTORS
330
C
102
}
330
C
100
AcDbDictionary
281
     1
  3
Standard
350
DC5
  0
DICTIONARY
  5
17
102
{ACAD_REACTORS
330
C
102
}
330
C
100
AcDbDictionary
281
     1
  3
Standard
350
18
  0
DICTIONARY
  5
19
102
{ACAD_REACTORS
330
C
102
}
330
C
100
AcDbDictionary
281
     1
  3
8.5 11 port
350
CE14
  3
8.5 x 11
350
EF5
  3
D Size - Full Scale
350
6ED
  3
D Size - Full Scale - Monochrome
350
6F6
  0
ACDBDICTIONARYWDFLT
  5
E
102
{ACAD_REACTORS
330
C
102
}
330
C
100
AcDbDictionary
281
     1
  3
Normal
350
F
100
AcDbDictionaryWithDefault
340
F
  0
DICTIONARY
  5
DA2
102
{ACAD_REACTORS
330
C
102
}
330
C
100
AcDbDictionary
281
     1
  3
A0
350
DA3
  3
A1
350
DA4
  3
A2
350
DA5
  3
A3
350
DA6
  3
A4
350
DA7
  3
A5
350
DA8
  3
A6
350
DA9
  3
A7
350
DAA
  3
A8
350
DAB
  3
A9
350
DAC
  3
B0
350
DAD
  3
B1
350
DAE
  3
B2
350
DAF
  3
B3
350
DB0
  3
B4
350
DB1
  3
B5
350
DB2
  3
B6
350
DB3
  3
B7
350
DB4
  3
B8
350
DB5
  3
B9
350
DB6
  3
C0
350
DB7
  3
C1
350
DB8
  3
C2
350
DB9
  3
C3
350
DBA
  3
C4
350
DBB
  3
C5
350
DBC
  3
C6
350
DBD
  3
C7
350
DBE
  3
C8
350
DBF
  3
C9
350
DC0
  3
D0
350
DC1
  3
D1
350
DC2
  3
D2
350
DC3
  0
DICTIONARY
  5
E09
102
{ACAD_REACTORS
330
C
102
}
330
C
100
AcDbDictionary
281
     1
  3
Imperial24
350
E0B
  0
DICTIONARY
  5
86
102
{ACAD_REACTORS
330
C
102
}
330
C
100
AcDbDictionary
281
     1
  3
Standard
350
87
  0
DICTIONARY
  5
D6F
102
{ACAD_REACTORS
330
C
102
}
330
C
100
AcDbDictionary
281
     1
  3
2dWireframe
350
D75
  3
3dWireframe
350
17CF
  3
Basic
350
D74
  3
Brighten
350
D7B
  3
ColorChange
350
D7F
  3
Conceptual
350
D78
  3
Dim
350
D7A
  3
EdgeColorOff
350
DA1
  3
Facepattern
350
D7E
  3
Flat
350
D70
  3
FlatWithEdges
350
D71
  3
Gouraud
350
D72
  3
GouraudWithEdges
350
D73
  3
Hidden
350
D77
  3
JitterOff
350
D9F
  3
Linepattern
350
D7D
  3
OverhangOff
350
DA0
  3
Realistic
350
D79
  3
Shaded
350
DDE
  3
Shaded with edges
350
DDD
  3
Shades of Gray
350
DDA
  3
Sketchy
350
DDB
  3
Thicken
350
D7C
  3
Wireframe
350
D76
  3
X-Ray
350
DDC
  0
WIPEOUTVARIABLES
  5
17D8
102
{ACAD_REACTORS
330
C
102
}
330
C
100
AcDbWipeoutVariables
 70
     1
  0
XRECORD
  5
12916
102
{ACAD_REACTORS
330
C
102
}
330
C
100
AcDbXrecord
280
     1
 90
        1
330
87
330
C4A8
330
C4AD
330
C4B4
330
C4B9
330
C4BF
330
C4D4
330
C4D9
330
C4DE
330
C4E2
330
1290F
330
C56F
330
C575
330
C57B
330
C581
330
11CFA
  0
DICTIONARY
  5
66
102
{ACAD_REACTORS
330
C
102
}
330
C
100
AcDbDictionary
281
     1
  3
#REVCLOUDAPPROXARCLEN
350
1270C
  3
CANNOSCALE
350
DCE
  3
CMLEADERSTYLE
350
DCC
  3
CTABLESTYLE
350
13F
  3
CVIEWDETAILSTYLE
350
E1B
  3
CVIEWSECTIONSTYLE
350
E1C
  3
DIMASSOC
350
67
  3
HIDETEXT
350
6B
  3
HPCOLOR
350
11247
  3
HPLAYER
350
11245
  3
HPTRANSPARENCY
350
11246
  3
INDEXCTL
350
12892
  3
LAYEREVAL
350
DD0
  3
LAYERNOTIFY
350
DD1
  3
LIGHTINGUNITS
350
DCF
  3
MSLTSCALE
350
DCD
  3
SORTENTS
350
12891
  3
XCLIPFRAME
350
12893
  0
DICTIONARY
  5
12920
102
{ACAD_REACTORS
330
C
102
}
330
C
100
AcDbDictionary
281
     1
  3
AcDsRecords
350
12922
  3
AcDsSchemas
350
12921
1001
ACAD
1070
     2
  0
DICTIONARY
  5
1031
102
{ACAD_REACTORS
330
C
102
}
330
C
100
AcDbDictionary
281
     1
  0
DICTIONARY
  5
113A
102
{ACAD_REACTORS
330
C
102
}
330
C
100
AcDbDictionary
281
     1
  3
ASEBlockHierarchyIndexRecord
350
113B
1001
DCO15
1040
2101805240.0
  0
XRECORD
  5
12917
102
{ACAD_REACTORS
330
C
102
}
330
C
100
AcDbXrecord
280
     1
  1
DWGPROPS COOKIE
  2

  3

  4

  6

  7

  8
Louis
  9

300
=
301
=
302
=
303
=
304
=
305
=
306
=
307
=
308
=
309
=
 40
2.765798611111111
 41
2460129.622881944
 42
2460193.440069445
  1

 90
        0
  0
DICTIONARY
  5
663
102
{ACAD_REACTORS
330
BA
102
}
330
BA
100
AcDbDictionary
281
     1
  0
DICTIONARY
  5
BB
102
{ACAD_REACTORS
330
BA
102
}
330
BA
100
AcDbDictionary
281
     1
  3
_LAYISO_STATE
350
12722
1001
AcLayerTools
1000
22
1000
0
  0
DICTIONARY
  5
662
102
{ACAD_REACTORS
330
BA
102
}
330
BA
100
AcDbDictionary
281
     1
1001
ACAD
1000
<All
  0
XRECORD
  5
EE3
102
{ACAD_REACTORS
330
EE2
102
}
330
EE2
100
AcDbXrecord
280
     1
290
     1
  0
XRECORD
  5
12899
102
{ACAD_REACTORS
330
12898
102
}
330
12898
100
AcDbXrecord
280
     1
 70
     1
340
DA3
340
10
 70
    -1
  0
XRECORD
  5
1289C
102
{ACAD_REACTORS
330
1289B
102
}
330
1289B
100
AcDbXrecord
280
     1
 70
     1
340
DA3
340
1019
 70
    -1
  0
XRECORD
  5
128C4
102
{ACAD_REACTORS
330
128C3
102
}
330
128C3
100
AcDbXrecord
280
     1
 70
     1
340
DBD
340
1789
 70
    -1
  0
XRECORD
  5
128E9
102
{ACAD_REACTORS
330
128E8
102
}
330
128E8
100
AcDbXrecord
280
     1
 70
     1
340
DC1
340
1789
 70
    -1
  0
XRECORD
  5
1290E
102
{ACAD_REACTORS
330
1290D
102
}
330
1290D
100
AcDbXrecord
280
     1
 70
     1
340
DC2
340
1789
 70
    -1
  0
XRECORD
  5
12912
102
{ACAD_REACTORS
330
12911
102
}
330
12911
100
AcDbXrecord
280
     1
 70
     1
340
DC2
340
1249
 70
    -1
  0
XRECORD
  5
12915
102
{ACAD_REACTORS
330
12914
102
}
330
12914
100
AcDbXrecord
280
     1
 70
     1
340
DC2
340
10
 70
    -1
  0
SORTENTSTABLE
  5
19A6
102
{ACAD_REACTORS
330
19A5
102
}
330
19A5
100
AcDbSortentsTable
330
1F
331
1290F
  5
C552
  0
SORTENTSTABLE
  5
C4A3
102
{ACAD_REACTORS
330
C4A2
102
}
330
C4A2
100
AcDbSortentsTable
330
C4A1
331
C4A5
  5
600
331
C4A8
  5
122F
331
C4AD
  5
1230
331
C4B2
  5
1231
331
C4B3
  5
123B
331
C4B4
  5
123C
331
C4B9
  5
123D
331
C4BE
  5
123E
331
C4BF
  5
123F
331
C4CC
  5
124B
331
C4CD
  5
124C
331
C4CE
  5
124D
331
C4CF
  5
124E
331
C4D0
  5
1248
  0
ACAD_EVALUATION_GRAPH
  5
11672
102
{ACAD_REACTORS
330
11671
102
}
330
11671
100
AcDbEvalGraph
 96
       16
 97
       16
 91
        0
 93
       32
 95
        1
360
11673
 92
        2
 92
        5
 92
        0
 92
        6
 91
        1
 93
       32
 95
        2
360
11674
 92
       -1
 92
       -1
 92
        2
 92
        2
 91
        2
 93
       32
 95
        3
360
11675
 92
        0
 92
        0
 92
       -1
 92
       -1
 91
        3
 93
       32
 95
        4
360
11676
 92
        1
 92
        1
 92
       -1
 92
       -1
 91
        4
 93
       32
 95
        5
360
11677
 92
       -1
 92
       -1
 92
        5
 92
        5
 91
        5
 93
       32
 95
        6
360
11678
 92
        3
 92
        3
 92
       -1
 92
       -1
 91
        6
 93
       32
 95
        7
360
11679
 92
        4
 92
        4
 92
       -1
 92
       -1
 91
        7
 93
       32
 95
        8
360
1167A
 92
        6
 92
        6
 92
       -1
 92
       -1
 92
        0
 93
        0
 94
        1
 91
        0
 91
        2
 92
       -1
 92
       -1
 92
       -1
 92
        1
 92
       -1
 92
        1
 93
        0
 94
        1
 91
        0
 91
        3
 92
       -1
 92
       -1
 92
        0
 92
        3
 92
       -1
 92
        2
 93
        0
 94
        2
 91
        1
 91
        0
 92
       -1
 92
        5
 92
       -1
 92
       -1
 92
       -1
 92
        3
 93
        0
 94
        1
 91
        0
 91
        5
 92
       -1
 92
       -1
 92
        1
 92
        4
 92
       -1
 92
        4
 93
        0
 94
        1
 91
        0
 91
        6
 92
       -1
 92
       -1
 92
        3
 92
        6
 92
       -1
 92
        5
 93
        0
 94
        2
 91
        4
 91
        0
 92
        2
 92
       -1
 92
       -1
 92
       -1
 92
       -1
 92
        6
 93
        0
 94
        2
 91
        0
 91
        7
 92
       -1
 92
       -1
 92
        4
 92
       -1
 92
       -1
  0
DICTIONARY
  5
12964
102
{ACAD_REACTORS
330
11671
102
}
330
11671
100
AcDbDictionary
280
     1
281
     1
  3
Edit
360
12965
  0
ACDB_DYNAMICBLOCKPURGEPREVENTER_VERSION
  5
11680
102
{ACAD_REACTORS
330
11671
102
}
330
11671
100
AcDbDynamicBlockPurgePreventer
 70
     1
  0
DICTIONARY
  5
1296F
102
{ACAD_REACTORS
330
1173B
102
}
330
1173B
100
AcDbDictionary
280
     1
281
     1
  3
Edit
360
12970
  0
DICTIONARY
  5
12972
102
{ACAD_REACTORS
330
12971
102
}
330
12971
100
AcDbDictionary
280
     1
281
     1
  3
Edit
360
12973
  0
DICTIONARY
  5
128A2
102
{ACAD_REACTORS
330
128A1
102
}
330
128A1
100
AcDbDictionary
281
     1
  3
ACDB_ANNOTATIONSCALE_VIEW_COLLECTION
350
128A3
  3
ACDB_ANNOTATIONSCALES
350
128BE
  0
DICTIONARY
  5
128C7
102
{ACAD_REACTORS
330
128C6
102
}
330
128C6
100
AcDbDictionary
281
     1
  3
ACDB_ANNOTATIONSCALE_VIEW_COLLECTION
350
128C8
  3
ACDB_ANNOTATIONSCALES
350
128E3
  0
DICTIONARY
  5
128EC
102
{ACAD_REACTORS
330
128EB
102
}
330
128EB
100
AcDbDictionary
281
     1
  3
ACDB_ANNOTATIONSCALE_VIEW_COLLECTION
350
128ED
  3
ACDB_ANNOTATIONSCALES
350
12908
  0
DIMASSOC
  5
C571
102
{ACAD_REACTORS
330
C570
102
}
330
C570
100
AcDbDimAssoc
330
C56F
 90
        3
 70
     0
 71
     0
  1
AcDbOsnapPointRef
 72
    13
331
C56D
 73
     2
 91
        1
 40
0.0
 10
0.0
 20
0.0
 30
2.000000000000000E+50
 75
     0
  1
AcDbOsnapPointRef
 72
    13
331
C56E
 73
     2
 91
        0
 40
0.0
 10
0.0
 20
0.0
 30
2.000000000000000E+50
 75
     0
  0
DICTIONARY
  5
C572
102
{ACAD_REACTORS
330
C570
102
}
330
C570
100
AcDbDictionary
281
     1
  3
ACDB_ANNOTATIONSCALES
350
C573
  0
DIMASSOC
  5
C577
102
{ACAD_REACTORS
330
C576
102
}
330
C576
100
AcDbDimAssoc
330
C575
 90
        1
 70
     0
 71
     0
  1
AcDbOsnapPointRef
 72
     1
331
C56E
 73
     2
 91
        0
 40
1.0
 10
0.0
 20
0.0
 30
2.000000000000000E+50
 75
     0
  0
DICTIONARY
  5
C578
102
{ACAD_REACTORS
330
C576
102
}
330
C576
100
AcDbDictionary
281
     1
  3
ACDB_ANNOTATIONSCALES
350
C579
  0
DIMASSOC
  5
C57D
102
{ACAD_REACTORS
330
C57C
102
}
330
C57C
100
AcDbDimAssoc
330
C57B
 90
        3
 70
     0
 71
     0
  1
AcDbOsnapPointRef
 72
    13
331
C56D
 73
     2
 91
        1
 40
0.0
 10
0.0
 20
0.0
 30
2.000000000000000E+50
 75
     0
  1
AcDbOsnapPointRef
 72
     8
331
C56D
 73
     2
 91
        4
 40
0.9859765844311707
 10
0.0
 20
0.0
 30
0.0
 75
     1
  1
AcDbOsnapPointRef
 72
    13
331
C56D
 73
     2
 91
        1
 40
0.0
 10
0.0
 20
0.0
 30
2.000000000000000E+50
 75
     0
  0
DICTIONARY
  5
C57E
102
{ACAD_REACTORS
330
C57C
102
}
330
C57C
100
AcDbDictionary
281
     1
  3
ACDB_ANNOTATIONSCALES
350
C57F
  0
DICTIONARY
  5
C583
102
{ACAD_REACTORS
330
C582
102
}
330
C582
100
AcDbDictionary
280
     1
281
     1
  3
AcDbRepData
360
C584
  3
AppDataCache
360
1174E
  0
DICTIONARY
  5
C589
102
{ACAD_REACTORS
330
C582
102
}
330
C582
100
AcDbDictionary
281
     1
  3
ACDB_ANNOTATIONSCALES
350
C58A
  0
DICTIONARY
  5
C58E
102
{ACAD_REACTORS
330
C58D
102
}
330
C58D
100
AcDbDictionary
281
     1
  3
ACDB_ANNOTATIONSCALES
350
C58F
  0
DICTIONARY
  5
C593
102
{ACAD_REACTORS
330
C592
102
}
330
C592
100
AcDbDictionary
281
     1
  3
ACDB_ANNOTATIONSCALES
350
C594
  0
DICTIONARY
  5
C598
102
{ACAD_REACTORS
330
C597
102
}
330
C597
100
AcDbDictionary
281
     1
  3
ACDB_ANNOTATIONSCALES
350
C599
  0
DICTIONARY
  5
C59D
102
{ACAD_REACTORS
330
C59C
102
}
330
C59C
100
AcDbDictionary
281
     1
  3
ACDB_ANNOTATIONSCALES
350
C59E
  0
DICTIONARY
  5
C5A2
102
{ACAD_REACTORS
330
C5A1
102
}
330
C5A1
100
AcDbDictionary
281
     1
  3
ACDB_ANNOTATIONSCALES
350
C5A3
  0
DICTIONARY
  5
C5A7
102
{ACAD_REACTORS
330
C5A6
102
}
330
C5A6
100
AcDbDictionary
281
     1
  3
ACDB_ANNOTATIONSCALES
350
C5A8
  0
XRECORD
  5
1296A
102
{ACAD_REACTORS
330
12969
102
}
330
12969
100
AcDbXrecord
280
     1
102
SHADEPLOT
 70
     0
  0
DICTIONARY
  5
C4AA
102
{ACAD_REACTORS
330
C4A9
102
}
330
C4A9
100
AcDbDictionary
281
     1
  3
ACDB_ANNOTATIONSCALES
350
C4AB
  0
DICTIONARY
  5
C4AF
102
{ACAD_REACTORS
330
C4AE
102
}
330
C4AE
100
AcDbDictionary
281
     1
  3
ACDB_ANNOTATIONSCALES
350
C4B0
  0
DICTIONARY
  5
C4B6
102
{ACAD_REACTORS
330
C4B5
102
}
330
C4B5
100
AcDbDictionary
281
     1
  3
ACDB_ANNOTATIONSCALES
350
C4B7
  0
DICTIONARY
  5
C4BB
102
{ACAD_REACTORS
330
C4BA
102
}
330
C4BA
100
AcDbDictionary
281
     1
  3
ACDB_ANNOTATIONSCALES
350
C4BC
  0
DICTIONARY
  5
C4C1
102
{ACAD_REACTORS
330
C4C0
102
}
330
C4C0
100
AcDbDictionary
281
     1
  3
ACDB_ANNOTATIONSCALES
350
C4C2
  0
DICTIONARY
  5
C4D6
102
{ACAD_REACTORS
330
C4D5
102
}
330
C4D5
100
AcDbDictionary
281
     1
  3
ACDB_ANNOTATIONSCALES
350
C4D7
  0
DICTIONARY
  5
C4DB
102
{ACAD_REACTORS
330
C4DA
102
}
330
C4DA
100
AcDbDictionary
281
     1
  3
ACDB_ANNOTATIONSCALES
350
C4DC
  0
DICTIONARY
  5
C4E0
102
{ACAD_REACTORS
330
C4DF
102
}
330
C4DF
100
AcDbDictionary
281
     1
  3
ACDB_ANNOTATIONSCALES
350
C4E1
  0
DICTIONARY
  5
C4E4
102
{ACAD_REACTORS
330
C4E3
102
}
330
C4E3
100
AcDbDictionary
281
     1
  3
ACDB_ANNOTATIONSCALES
350
C4E5
  0
XRECORD
  5
1296B
102
{ACAD_REACTORS
330
C4E8
102
}
330
C4E8
100
AcDbXrecord
280
     1
102
SHADEPLOT
 70
     0
  0
XRECORD
  5
C4E9
102
{ACAD_REACTORS
330
C4E8
102
}
330
C4E8
100
AcDbXrecord
280
     1
 90
        1
340
DC2
  0
DICTIONARY
  5
11CFC
102
{ACAD_REACTORS
330
11CFB
102
}
330
11CFB
100
AcDbDictionary
281
     1
  3
ACDB_ANNOTATIONSCALES
350
11CFD
  0
XRECORD
  5
12919
102
{ACAD_REACTORS
330
12918
102
}
330
12918
100
AcDbXrecord
280
     1
 70
     1
  0
XRECORD
  5
1291A
102
{ACAD_REACTORS
330
12918
102
}
330
12918
100
AcDbXrecord
280
     1
 70
     1
  0
ACDBDETAILVIEWSTYLE
  5
E0D
102
{ACAD_XDICTIONARY
360
12960
102
}
102
{ACAD_REACTORS
330
E0C
102
}
330
E0C
100
AcDbModelDocViewStyle
 70
     0
  3
Imperial24
290
     0
100
AcDbDetailViewStyle
 70
     0
 71
     0
 90
        3
 71
     1
340
11
 40
0.24
340
0
 40
0.24
300

 40
0.36
280
     3
 71
     2
340
16
 90
       25
 71
     3
340
11
 40
0.24
 90
        1
 40
0.75
 90
        1
300
%<\AcVar ViewType \f "%tc1">% %<\AcVar ViewDetailId>%\PSCALE %<\AcVar ViewScale \f "%sn">%
 71
     4
340
16
 90
       25
340
16
 90
       25
280
     0
  0
IMAGEDEF
  5
F6D8
102
{ACAD_REACTORS
330
1241
330
F790
102
}
330
1241
100
AcDbRasterImageDef
 90
        0
  1
..\Z_Job Template\Shop Drawings\2023 BHGS_LOGO.jpg
 10
737.0
 20
396.0
 11
0.0013568521031208
 21
0.0013568521031208
280
     1
281
     0
  0
LAYOUT
  5
C4EE
102
{ACAD_XDICTIONARY
360
C4EF
102
}
102
{ACAD_REACTORS
330
1A
102
}
330
1A
100
AcDbPlotSettings
  1
8.5 11 port
  2
Bluebeam PDF
  4
Letter
  6

 40
0.0
 41
0.0
 42
0.0000152587890625
 43
0.0
 44
215.9000091552734
 45
279.3999938964844
 46
-0.0075606930273008
 47
-0.0061152663036033
 48
12.56571730506496
 49
7.495807772965775
140
23.56571730506496
141
15.99580777296577
142
1.0
143
1.0
 70
   676
 72
     0
 73
     0
 74
     1
  7
BG.CTB
 75
     0
147
0.0153079250550959
148
-598.5564306074362
149
-190.3869291905147
100
AcDbLayout
  1
EDGE PROFILE 1-1 CHAMFER
 70
     1
 71
     1
 10
23.56551146852218
 20
7.49578915184324
 11
32.06551182896602
 21
18.49578891154735
 12
0.0
 22
0.0
 32
0.0
 14
23.56571730506496
 24
7.495807772965772
 34
0.0
 15
32.06571730506496
 25
18.49580777296577
 35
0.0
146
0.0
 13
0.0
 23
0.0
 33
0.0
 16
1.0
 26
0.0
 36
0.0
 17
0.0
 27
1.0
 37
0.0
 76
     0
330
C4A1
331
C4A5
1001
ACAD_PSEXT
1000
Bluebeam PDF
1000
BluebeamPSDriver
1000
BLUEBEAMPDFPORT
1000

1070
     0
  0
LAYOUT
  5
22
102
{ACAD_XDICTIONARY
360
12923
102
}
102
{ACAD_REACTORS
330
1A
102
}
330
1A
100
AcDbPlotSettings
  1

  2
none_device
  4
ANSI_A_(8.50_x_11.00_Inches)
  6

 40
6.349999904632568
 41
19.04999923706055
 42
6.350006103515625
 43
19.04998779296875
 44
215.8999938964844
 45
279.3999938964844
 46
0.0
 47
0.0
 48
0.0
 49
0.0
140
0.0
141
0.0
142
1.0
143
2.584895464708373
 70
 11952
 72
     0
 73
     1
 74
     0
  7

 75
     0
147
0.3868628397755418
148
0.0
149
0.0
100
AcDbLayout
  1
Model
 70
     1
 71
     0
 10
0.0
 20
0.0
 11
12.0
 21
9.0
 12
0.0
 22
0.0
 32
0.0
 14
0.0
 24
0.0
 34
0.0
 15
0.0
 25
0.0
 35
0.0
146
0.0
 13
0.0
 23
0.0
 33
0.0
 16
1.0
 26
0.0
 36
0.0
 17
0.0
 27
1.0
 37
0.0
 76
     0
330
1F
331
CE3
  0
MATERIAL
  5
D6D
102
{ACAD_XDICTIONARY
360
DE7
102
}
102
{ACAD_REACTORS
330
72
102
}
330
72
100
AcDbMaterial
  1
ByBlock
 73
     1
 78
     1
172
     1
176
     1
270
     1
274
     1
  0
MATERIAL
  5
D6C
102
{ACAD_XDICTIONARY
360
DE5
102
}
102
{ACAD_REACTORS
330
72
102
}
330
72
100
AcDbMaterial
  1
ByLayer
 73
     1
 78
     1
172
     1
176
     1
270
     1
274
     1
  0
MATERIAL
  5
D6E
102
{ACAD_XDICTIONARY
360
DE9
102
}
102
{ACAD_REACTORS
330
72
102
}
330
72
100
AcDbMaterial
  1
Global
 73
     1
 78
     1
172
     1
176
     1
270
     1
274
     1
  0
MLEADERSTYLE
  5
DC5
102
{ACAD_REACTORS
330
DC4
102
}
330
DC4
100
AcDbMLeaderStyle
170
     2
171
     1
172
     0
 90
        2
 40
0.0
 41
0.0
173
     1
 91
-1056964608
340
14
 92
       -2
290
     1
 42
0.09
291
     1
 43
0.36
  3
Standard
 44
0.18
300

342
11
174
     1
178
     6
175
     1
176
     0
 93
-1056964608
 45
0.18
292
     0
297
     0
 46
0.18
 94
-1056964608
 47
1.0
 49
1.0
140
1.0
293
     1
141
0.0
294
     1
177
     0
142
1.0
295
     0
296
     0
143
0.125
1001
ACAD_MLEADERVER
1070
     2
  0
MLINESTYLE
  5
18
102
{ACAD_REACTORS
330
17
102
}
330
17
100
AcDbMlineStyle
  2
STANDARD
 70
     0
  3

 62
   256
 51
90.0
 52
90.0
 71
     2
 49
0.5
 62
   256
  6
BYLAYER
 49
-0.5
 62
   256
  6
BYLAYER
  0
PLOTSETTINGS
  5
CE14
102
{ACAD_XDICTIONARY
360
1296D
102
}
102
{ACAD_REACTORS
330
19
102
}
330
19
100
AcDbPlotSettings
  1
8.5 11 port
  2
Bluebeam PDF
  4
Letter
  6

 40
0.0
 41
0.0
 42
0.0000152587890625
 43
0.0
 44
215.9000091552734
 45
279.3999938964844
 46
-31.76086933608272
 47
31.73681295158669
 48
12.56571730506496
 49
7.495807772965775
140
23.56571730506496
141
15.99580777296577
142
1.0
143
1.0
 70
  2724
 72
     0
 73
     0
 74
     1
  7
BG.CTB
 75
     0
147
0.0153079250550959
148
-319.1652928410795
149
-190.3803405455843
1001
ACAD_PSEXT
1000
Bluebeam PDF
1000
BluebeamPSDriver
1000
BLUEBEAMPDFPORT
1000

1070
     0
  0
PLOTSETTINGS
  5
EF5
102
{ACAD_XDICTIONARY
360
12962
102
}
102
{ACAD_REACTORS
330
19
102
}
330
19
100
AcDbPlotSettings
  1
8.5 x 11
  2
Bluebeam PDF
  4
Letter
  6

 40
0.0
 41
0.0
 42
0.0000152587890625
 43
0.0
 44
215.9000091552734
 45
279.3999938964844
 46
-184.5205113436917
 47
-302.0404933436547
 48
0.0
 49
0.0
140
0.0
141
0.0
142
1.0
143
1.0
 70
  2740
 72
     0
 73
     1
 74
     1
  7

 75
    16
147
1.0
148
7.121530798870952
149
0.7397936681981605
1001
ACAD_PSEXT
1000
Bluebeam PDF
1000
BluebeamPSDriver
1000
BLUEBEAMPDFPORT
1000

1070
     0
  0
PLOTSETTINGS
  5
6ED
102
{ACAD_XDICTIONARY
360
12926
102
}
102
{ACAD_REACTORS
330
19
102
}
330
19
100
AcDbPlotSettings
  1
D Size - Full Scale
  2
AutoCAD PDF (General Documentation).pc3
  4
ARCH_D_(24.00_x_36.00_Inches)
  6

 40
5.0
 41
17.0
 42
5.0
 43
17.0
 44
609.5999755859375
 45
914.4000244140626
 46
0.0
 47
0.0
 48
0.0
 49
0.0
140
0.0
141
0.0
142
1.0
143
1.0
 70
  2736
 72
     0
 73
     1
 74
     5
  7

 75
    16
147
1.0
148
0.0
149
0.0
1001
ACAD_PSEXT
1000
AutoCAD PDF (General Documentation).pc3
1000
DWG To PDF
1000
File
1000

1070
     0
  0
PLOTSETTINGS
  5
6F6
102
{ACAD_XDICTIONARY
360
12928
102
}
102
{ACAD_REACTORS
330
19
102
}
330
19
100
AcDbPlotSettings
  1
D Size - Full Scale - Monochrome
  2
AutoCAD PDF (General Documentation).pc3
  4
ARCH_D_(24.00_x_36.00_Inches)
  6

 40
5.0
 41
17.0
 42
5.0
 43
17.0
 44
609.5999755859375
 45
914.4000244140626
 46
0.0
 47
0.0
 48
0.0
 49
0.0
140
0.0
141
0.0
142
1.0
143
1.0
 70
  2736
 72
     0
 73
     1
 74
     5
  7
monochrome.ctb
 75
    16
147
1.0
148
0.0
149
0.0
1001
ACAD_PSEXT
1000
AutoCAD PDF (General Documentation).pc3
1000
DWG To PDF
1000
File
1000

1070
     0
  0
ACDBPLACEHOLDER
  5
F
102
{ACAD_REACTORS
330
E
102
}
330
E
  0
SCALE
  5
DA3
102
{ACAD_REACTORS
330
DA2
102
}
330
DA2
100
AcDbScale
 70
     0
300
1:1
140
1.0
141
1.0
290
     1
  0
SCALE
  5
DA4
102
{ACAD_REACTORS
330
DA2
102
}
330
DA2
100
AcDbScale
 70
     0
300
1:2
140
1.0
141
2.0
290
     0
  0
SCALE
  5
DA5
102
{ACAD_REACTORS
330
DA2
102
}
330
DA2
100
AcDbScale
 70
     0
300
1:4
140
1.0
141
4.0
290
     0
  0
SCALE
  5
DA6
102
{ACAD_REACTORS
330
DA2
102
}
330
DA2
100
AcDbScale
 70
     0
300
1:5
140
1.0
141
5.0
290
     0
  0
SCALE
  5
DA7
102
{ACAD_REACTORS
330
DA2
102
}
330
DA2
100
AcDbScale
 70
     0
300
1:8
140
1.0
141
8.0
290
     0
  0
SCALE
  5
DA8
102
{ACAD_REACTORS
330
DA2
102
}
330
DA2
100
AcDbScale
 70
     0
300
1:10
140
1.0
141
10.0
290
     0
  0
SCALE
  5
DA9
102
{ACAD_REACTORS
330
DA2
102
}
330
DA2
100
AcDbScale
 70
     0
300
1:16
140
1.0
141
16.0
290
     0
  0
SCALE
  5
DAA
102
{ACAD_REACTORS
330
DA2
102
}
330
DA2
100
AcDbScale
 70
     0
300
1:20
140
1.0
141
20.0
290
     0
  0
SCALE
  5
DAB
102
{ACAD_REACTORS
330
DA2
102
}
330
DA2
100
AcDbScale
 70
     0
300
1:30
140
1.0
141
30.0
290
     0
  0
SCALE
  5
DAC
102
{ACAD_REACTORS
330
DA2
102
}
330
DA2
100
AcDbScale
 70
     0
300
1:40
140
1.0
141
40.0
290
     0
  0
SCALE
  5
DAD
102
{ACAD_REACTORS
330
DA2
102
}
330
DA2
100
AcDbScale
 70
     0
300
1:50
140
1.0
141
50.0
290
     0
  0
SCALE
  5
DAE
102
{ACAD_REACTORS
330
DA2
102
}
330
DA2
100
AcDbScale
 70
     0
300
1:100
140
1.0
141
100.0
290
     0
  0
SCALE
  5
DAF
102
{ACAD_REACTORS
330
DA2
102
}
330
DA2
100
AcDbScale
 70
     0
300
2:1
140
2.0
141
1.0
290
     0
  0
SCALE
  5
DB0
102
{ACAD_REACTORS
330
DA2
102
}
330
DA2
100
AcDbScale
 70
     0
300
4:1
140
4.0
141
1.0
290
     0
  0
SCALE
  5
DB1
102
{ACAD_REACTORS
330
DA2
102
}
330
DA2
100
AcDbScale
 70
     0
300
8:1
140
8.0
141
1.0
290
     0
  0
SCALE
  5
DB2
102
{ACAD_REACTORS
330
DA2
102
}
330
DA2
100
AcDbScale
 70
     0
300
10:1
140
10.0
141
1.0
290
     0
  0
SCALE
  5
DB3
102
{ACAD_REACTORS
330
DA2
102
}
330
DA2
100
AcDbScale
 70
     0
300
100:1
140
100.0
141
1.0
290
     0
  0
SCALE
  5
DB4
102
{ACAD_REACTORS
330
DA2
102
}
330
DA2
100
AcDbScale
 70
     0
300
1/128" = 1'-0"
140
0.0078125
141
12.0
290
     0
  0
SCALE
  5
DB5
102
{ACAD_REACTORS
330
DA2
102
}
330
DA2
100
AcDbScale
 70
     0
300
1/64" = 1'-0"
140
0.015625
141
12.0
290
     0
  0
SCALE
  5
DB6
102
{ACAD_REACTORS
330
DA2
102
}
330
DA2
100
AcDbScale
 70
     0
300
1/32" = 1'-0"
140
0.03125
141
12.0
290
     0
  0
SCALE
  5
DB7
102
{ACAD_REACTORS
330
DA2
102
}
330
DA2
100
AcDbScale
 70
     0
300
1/16" = 1'-0"
140
0.0625
141
12.0
290
     0
  0
SCALE
  5
DB8
102
{ACAD_REACTORS
330
DA2
102
}
330
DA2
100
AcDbScale
 70
     0
300
3/32" = 1'-0"
140
0.09375
141
12.0
290
     0
  0
SCALE
  5
DB9
102
{ACAD_REACTORS
330
DA2
102
}
330
DA2
100
AcDbScale
 70
     0
300
1/8" = 1'-0"
140
0.125
141
12.0
290
     0
  0
SCALE
  5
DBA
102
{ACAD_REACTORS
330
DA2
102
}
330
DA2
100
AcDbScale
 70
     0
300
3/16" = 1'-0"
140
0.1875
141
12.0
290
     0
  0
SCALE
  5
DBB
102
{ACAD_REACTORS
330
DA2
102
}
330
DA2
100
AcDbScale
 70
     0
300
1/4" = 1'-0"
140
0.25
141
12.0
290
     0
  0
SCALE
  5
DBC
102
{ACAD_REACTORS
330
DA2
102
}
330
DA2
100
AcDbScale
 70
     0
300
3/8" = 1'-0"
140
0.375
141
12.0
290
     0
  0
SCALE
  5
DBD
102
{ACAD_REACTORS
330
DA2
102
}
330
DA2
100
AcDbScale
 70
     0
300
1/2" = 1'-0"
140
0.5
141
12.0
290
     0
  0
SCALE
  5
DBE
102
{ACAD_REACTORS
330
DA2
102
}
330
DA2
100
AcDbScale
 70
     0
300
3/4" = 1'-0"
140
0.75
141
12.0
290
     0
  0
SCALE
  5
DBF
102
{ACAD_REACTORS
330
DA2
102
}
330
DA2
100
AcDbScale
 70
     0
300
1" = 1'-0"
140
1.0
141
12.0
290
     0
  0
SCALE
  5
DC0
102
{ACAD_REACTORS
330
DA2
102
}
330
DA2
100
AcDbScale
 70
     0
300
1-1/2" = 1'-0"
140
1.5
141
12.0
290
     0
  0
SCALE
  5
DC1
102
{ACAD_REACTORS
330
DA2
102
}
330
DA2
100
AcDbScale
 70
     0
300
3" = 1'-0"
140
3.0
141
12.0
290
     0
  0
SCALE
  5
DC2
102
{ACAD_REACTORS
330
DA2
102
}
330
DA2
100
AcDbScale
 70
     0
300
6" = 1'-0"
140
6.0
141
12.0
290
     0
  0
SCALE
  5
DC3
102
{ACAD_REACTORS
330
DA2
102
}
330
DA2
100
AcDbScale
 70
     0
300
1'-0" = 1'-0"
140
12.0
141
12.0
290
     0
  0
ACDBSECTIONVIEWSTYLE
  5
E0B
102
{ACAD_XDICTIONARY
360
1295E
102
}
102
{ACAD_REACTORS
330
E09
102
}
330
E09
100
AcDbModelDocViewStyle
 70
     0
  3
Imperial24
290
     0
100
AcDbSectionViewStyle
 70
     0
 71
     0
 90
       78
 71
     1
340
11
 40
0.24
340
0
340
0
 40
0.24
300
I, O, Q, S, X, Z
 40
0.48
 90
        3
 40
0.18
 90
        1
 71
     2
340
16
 90
       25
340
16
 90
       50
 40
0.24
 40
0.0
 40
0.24
 71
     3
340
11
 40
0.24
 90
        1
 40
0.75
 90
        1
300
%<\AcVar ViewType \f "%tc1">% %<\AcVar ViewSectionStartId>%-%<\AcVar ViewSectionEndId>%\PSCALE %<\AcVar ViewScale \f "%sn">%
 71
     4
300
ANSI31
 40
1.0
 90
        0
290
     0
290
     0
 90
        6
 40
0.0
 40
1.570796326794896
 40
0.2617993877991494
 40
1.308996938995747
 40
-0.2617993877991494
 40
1.832595714594046
  0
TABLESTYLE
  5
87
102
{ACAD_XDICTIONARY
360
12894
102
}
102
{ACAD_REACTORS
330
86
102
}
330
86
100
AcDbTableStyle
  3
Standard
 70
     0
 71
     0
 40
0.06
 41
0.06
280
     0
281
     0
  7
Standard
140
0.18
170
     2
 62
     0
 63
     7
283
     0
274
    -2
284
     1
 64
     0
275
    -2
285
     1
 65
     0
276
    -2
286
     1
 66
     0
277
    -2
287
     1
 67
     0
278
    -2
288
     1
 68
     0
279
    -2
289
     1
 69
     0
  7
Standard
140
0.25
170
     5
 62
     0
 63
     7
283
     0
274
    -2
284
     1
 64
     0
275
    -2
285
     1
 65
     0
276
    -2
286
     1
 66
     0
277
    -2
287
     1
 67
     0
278
    -2
288
     1
 68
     0
279
    -2
289
     1
 69
     0
  7
Standard
140
0.18
170
     5
 62
     0
 63
     7
283
     0
274
    -2
284
     1
 64
     0
275
    -2
285
     1
 65
     0
276
    -2
286
     1
 66
     0
277
    -2
287
     1
 67
     0
278
    -2
288
     1
 68
     0
279
    -2
289
     1
 69
     0
  0
VISUALSTYLE
  5
D75
102
{ACAD_XDICTIONARY
360
12937
102
}
102
{ACAD_REACTORS
330
D6F
102
}
330
D6F
100
AcDbVisualStyle
  2
2dWireframe
 70
     4
 71
     0
 72
     2
 73
     1
 90
        0
 40
-0.6
 41
-30.0
 62
     5
 63
     7
 74
     1
 91
        4
 64
     7
 65
   257
 75
     1
175
     1
 42
1.0
 92
        0
 66
   257
 43
1.0
 76
     1
 77
     6
 78
     2
 67
     7
 79
     5
170
     0
171
     0
290
     0
174
     0
 93
        1
 44
0.0
173
     0
291
     0
 45
0.0
1001
ACAD
1000
AcDbSavedByObjectVersion
1070
     0
  0
VISUALSTYLE
  5
17CF
102
{ACAD_XDICTIONARY
360
12967
102
}
102
{ACAD_REACTORS
330
D6F
102
}
330
D6F
100
AcDbVisualStyle
  2
3dWireframe
 70
     5
 71
     0
 72
     2
 73
     0
 90
        0
 40
-0.6
 41
-30.0
 62
     5
 63
     7
 74
     1
 91
        4
 64
     7
 65
   257
 75
     1
175
     1
 42
1.0
 92
        0
 66
   257
 43
1.0
 76
     1
 77
     6
 78
     2
 67
     7
 79
     5
170
     0
171
     0
290
     0
174
     0
 93
        1
 44
0.0
173
     0
291
     0
 45
0.0
1001
ACAD
1000
AcDbSavedByObjectVersion
1070
     0
  0
VISUALSTYLE
  5
D74
102
{ACAD_XDICTIONARY
360
12935
102
}
102
{ACAD_REACTORS
330
D6F
102
}
330
D6F
100
AcDbVisualStyle
  2
Basic
 70
     7
 71
     1
 72
     0
 73
     1
 90
        0
 40
-0.6
 41
-30.0
 62
     5
 63
     7
 74
     0
 91
        4
 64
     7
 65
   257
 75
     1
175
     1
 42
1.0
 92
        8
 66
     7
 43
1.0
 76
     1
 77
     6
 78
     2
 67
     7
 79
     5
170
     0
171
     0
290
     0
174
     0
 93
        1
 44
0.0
173
     0
291
     1
 45
0.0
1001
ACAD
1000
AcDbSavedByObjectVersion
1070
     0
  0
VISUALSTYLE
  5
D7B
102
{ACAD_XDICTIONARY
360
12943
102
}
102
{ACAD_REACTORS
330
D6F
102
}
330
D6F
100
AcDbVisualStyle
  2
Brighten
 70
    12
 71
     2
 72
     2
 73
     1
 90
        0
 40
-0.6
 41
-30.0
 62
     5
 63
     7
 74
     1
 91
        4
 64
     7
 65
   257
 75
     1
175
     1
 42
1.0
 92
        8
 66
     7
 43
1.0
 76
     1
 77
     6
 78
     2
 67
     7
 79
     5
170
     0
171
     0
290
     0
174
     0
 93
        1
 44
50.0
173
     0
291
     1
 45
0.0
1001
ACAD
1000
AcDbSavedByObjectVersion
1070
     0
  0
VISUALSTYLE
  5
D7F
102
{ACAD_XDICTIONARY
360
1294B
102
}
102
{ACAD_REACTORS
330
D6F
102
}
330
D6F
100
AcDbVisualStyle
  2
ColorChange
 70
    16
 71
     2
 72
     2
 73
     3
 90
        0
 40
-0.6
 41
-30.0
 62
     5
 63
     8
 74
     1
 91
        4
 64
     7
 65
   257
 75
     1
175
     1
 42
1.0
 92
        8
 66
     8
 43
1.0
 76
     1
 77
     6
 78
     2
 67
     7
 79
     5
170
     0
171
     0
290
     0
174
     0
 93
        1
 44
0.0
173
     0
291
     1
 45
0.0
1001
ACAD
1000
AcDbSavedByObjectVersion
1070
     0
  0
VISUALSTYLE
  5
D78
102
{ACAD_XDICTIONARY
360
1293D
102
}
102
{ACAD_REACTORS
330
D6F
102
}
330
D6F
100
AcDbVisualStyle
  2
Conceptual
 70
     9
 71
     3
 72
     2
 73
     1
 90
        0
 40
-0.6
 41
-30.0
 62
     5
 63
     7
 74
     2
 91
        2
 64
     7
 65
   257
 75
     1
175
     1
 42
40.0
 92
        8
 66
     7
 43
1.0
 76
     1
 77
     6
 78
     2
 67
     7
 79
     3
170
     0
171
     0
290
     0
174
     0
 93
        1
 44
0.0
173
     0
291
     0
 45
0.0
1001
ACAD
1000
AcDbSavedByObjectVersion
1070
     0
  0
VISUALSTYLE
  5
D7A
102
{ACAD_XDICTIONARY
360
12941
102
}
102
{ACAD_REACTORS
330
D6F
102
}
330
D6F
100
AcDbVisualStyle
  2
Dim
 70
    11
 71
     2
 72
     2
 73
     1
 90
        0
 40
-0.6
 41
-30.0
 62
     5
 63
     7
 74
     1
 91
        4
 64
     7
 65
   257
 75
     1
175
     1
 42
1.0
 92
        8
 66
     7
 43
1.0
 76
     1
 77
     6
 78
     2
 67
     7
 79
     5
170
     0
171
     0
290
     0
174
     0
 93
        1
 44
-50.0
173
     0
291
     1
 45
0.0
1001
ACAD
1000
AcDbSavedByObjectVersion
1070
     0
  0
VISUALSTYLE
  5
DA1
102
{ACAD_XDICTIONARY
360
12951
102
}
102
{ACAD_REACTORS
330
D6F
102
}
330
D6F
100
AcDbVisualStyle
  2
EdgeColorOff
 70
    22
 71
     2
 72
     2
 73
     0
 90
        0
 40
-0.6
 41
-30.0
 62
     5
 63
     7
 74
     1
 91
        4
 64
     7
 65
   257
 75
     1
175
     1
 42
1.0
 92
        8
 66
     7
 43
1.0
 76
     1
 77
     6
 78
     2
 67
     7
 79
     5
170
     0
171
     0
290
     0
174
     0
 93
        1
 44
0.0
173
     0
291
     1
 45
0.0
1001
ACAD
1000
AcDbSavedByObjectVersion
1070
     0
  0
VISUALSTYLE
  5
D7E
102
{ACAD_XDICTIONARY
360
12949
102
}
102
{ACAD_REACTORS
330
D6F
102
}
330
D6F
100
AcDbVisualStyle
  2
Facepattern
 70
    15
 71
     2
 72
     2
 73
     1
 90
        0
 40
-0.6
 41
-30.0
 62
     5
 63
     7
 74
     1
 91
        4
 64
     7
 65
   257
 75
     1
175
     1
 42
1.0
 92
        8
 66
     7
 43
1.0
 76
     1
 77
     6
 78
     2
 67
     7
 79
     5
170
     0
171
     0
290
     0
174
     0
 93
        1
 44
0.0
173
     0
291
     1
 45
0.0
1001
ACAD
1000
AcDbSavedByObjectVersion
1070
     0
  0
VISUALSTYLE
  5
D70
102
{ACAD_XDICTIONARY
360
1292D
102
}
102
{ACAD_REACTORS
330
D6F
102
}
330
D6F
100
AcDbVisualStyle
  2
Flat
 70
     0
 71
     2
 72
     1
 73
     1
 90
        2
 40
-0.6
 41
30.0
 62
     5
 63
     7
 74
     0
 91
        0
 64
     7
 65
   257
 75
     1
175
     1
 42
1.0
 92
        8
 66
     7
 43
1.0
 76
     1
 77
     6
 78
     2
 67
     7
 79
     5
170
     0
171
     0
290
     0
174
     0
 93
       13
 44
0.0
173
     0
291
     1
 45
0.0
1001
ACAD
1000
AcDbSavedByObjectVersion
1070
     0
  0
VISUALSTYLE
  5
D71
102
{ACAD_XDICTIONARY
360
1292F
102
}
102
{ACAD_REACTORS
330
D6F
102
}
330
D6F
100
AcDbVisualStyle
  2
FlatWithEdges
 70
     1
 71
     2
 72
     1
 73
     1
 90
        2
 40
-0.6
 41
30.0
 62
     5
 63
     7
 74
     1
 91
        0
 64
     7
 65
   257
 75
     1
175
     1
 42
1.0
 92
        0
 66
   257
 43
1.0
 76
     1
 77
     6
 78
     2
 67
     7
 79
     5
170
     0
171
     0
290
     0
174
     0
 93
       13
 44
0.0
173
     0
291
     1
 45
0.0
1001
ACAD
1000
AcDbSavedByObjectVersion
1070
     0
  0
VISUALSTYLE
  5
D72
102
{ACAD_XDICTIONARY
360
12931
102
}
102
{ACAD_REACTORS
330
D6F
102
}
330
D6F
100
AcDbVisualStyle
  2
Gouraud
 70
     2
 71
     2
 72
     2
 73
     1
 90
        2
 40
-0.6
 41
30.0
 62
     5
 63
     7
 74
     0
 91
        0
 64
     7
 65
   257
 75
     1
175
     1
 42
1.0
 92
        0
 66
     7
 43
1.0
 76
     1
 77
     6
 78
     2
 67
     7
 79
     5
170
     0
171
     0
290
     0
174
     0
 93
       13
 44
0.0
173
     0
291
     1
 45
0.0
1001
ACAD
1000
AcDbSavedByObjectVersion
1070
     0
  0
VISUALSTYLE
  5
D73
102
{ACAD_XDICTIONARY
360
12933
102
}
102
{ACAD_REACTORS
330
D6F
102
}
330
D6F
100
AcDbVisualStyle
  2
GouraudWithEdges
 70
     3
 71
     2
 72
     2
 73
     1
 90
        2
 40
-0.6
 41
30.0
 62
     5
 63
     7
 74
     1
 91
        0
 64
     7
 65
   257
 75
     1
175
     1
 42
1.0
 92
        0
 66
   257
 43
1.0
 76
     1
 77
     6
 78
     2
 67
     7
 79
     5
170
     0
171
     0
290
     0
174
     0
 93
       13
 44
0.0
173
     0
291
     1
 45
0.0
1001
ACAD
1000
AcDbSavedByObjectVersion
1070
     0
  0
VISUALSTYLE
  5
D77
102
{ACAD_XDICTIONARY
360
1293B
102
}
102
{ACAD_REACTORS
330
D6F
102
}
330
D6F
100
AcDbVisualStyle
  2
Hidden
 70
     6
 71
     1
 72
     2
 73
     2
 90
        0
 40
-0.6
 41
-30.0
 62
     5
 63
     7
 74
     2
 91
        2
 64
     7
 65
   257
 75
     2
175
     1
 42
40.0
 92
        0
 66
   257
 43
1.0
 76
     1
 77
     6
 78
     2
 67
     7
 79
     3
170
     0
171
     0
290
     0
174
     0
 93
        1
 44
0.0
173
     0
291
     0
 45
0.0
1001
ACAD
1000
AcDbSavedByObjectVersion
1070
     0
  0
VISUALSTYLE
  5
D9F
102
{ACAD_XDICTIONARY
360
1294D
102
}
102
{ACAD_REACTORS
330
D6F
102
}
330
D6F
100
AcDbVisualStyle
  2
JitterOff
 70
    20
 71
     2
 72
     2
 73
     0
 90
        0
 40
-0.6
 41
-30.0
 62
     5
 63
     7
 74
     1
 91
        4
 64
     7
 65
   257
 75
     1
175
     1
 42
1.0
 92
       10
 66
     7
 43
1.0
 76
     1
 77
     6
 78
     2
 67
     7
 79
     5
170
     0
171
     0
290
     0
174
     0
 93
        1
 44
0.0
173
     0
291
     1
 45
0.0
1001
ACAD
1000
AcDbSavedByObjectVersion
1070
     0
  0
VISUALSTYLE
  5
D7D
102
{ACAD_XDICTIONARY
360
12947
102
}
102
{ACAD_REACTORS
330
D6F
102
}
330
D6F
100
AcDbVisualStyle
  2
Linepattern
 70
    14
 71
     2
 72
     2
 73
     1
 90
        0
 40
-0.6
 41
-30.0
 62
     5
 63
     7
 74
     1
 91
        4
 64
     7
 65
   257
 75
     7
175
     7
 42
1.0
 92
        8
 66
     7
 43
1.0
 76
     1
 77
     6
 78
     2
 67
     7
 79
     5
170
     0
171
     0
290
     0
174
     0
 93
        1
 44
0.0
173
     0
291
     1
 45
0.0
1001
ACAD
1000
AcDbSavedByObjectVersion
1070
     0
  0
VISUALSTYLE
  5
DA0
102
{ACAD_XDICTIONARY
360
1294F
102
}
102
{ACAD_REACTORS
330
D6F
102
}
330
D6F
100
AcDbVisualStyle
  2
OverhangOff
 70
    21
 71
     2
 72
     2
 73
     0
 90
        0
 40
-0.6
 41
-30.0
 62
     5
 63
     7
 74
     1
 91
        4
 64
     7
 65
   257
 75
     1
175
     1
 42
1.0
 92
        9
 66
     7
 43
1.0
 76
     1
 77
     6
 78
     2
 67
     7
 79
     5
170
     0
171
     0
290
     0
174
     0
 93
        1
 44
0.0
173
     0
291
     1
 45
0.0
1001
ACAD
1000
AcDbSavedByObjectVersion
1070
     0
  0
VISUALSTYLE
  5
D79
102
{ACAD_XDICTIONARY
360
1293F
102
}
102
{ACAD_REACTORS
330
D6F
102
}
330
D6F
100
AcDbVisualStyle
  2
Realistic
 70
     8
 71
     2
 72
     3
 73
     0
 90
        2
 40
-0.6
 41
30.0
 62
     5
 63
     7
 74
     0
 91
        0
 64
     7
 65
   257
 75
     1
175
     1
 42
1.0
 92
        8
 66
   257
 43
1.0
 76
     1
 77
     6
 78
     2
 67
     7
 79
     3
170
     0
171
     0
290
     0
174
     0
 93
       13
 44
0.0
173
     0
291
     0
 45
0.0
1001
ACAD
1000
AcDbSavedByObjectVersion
1070
     0
  0
VISUALSTYLE
  5
DDE
102
{ACAD_XDICTIONARY
360
1295C
102
}
102
{ACAD_REACTORS
330
D6F
102
}
330
D6F
100
AcDbVisualStyle
  2
Shaded
 70
    27
 71
     2
 72
     2
 73
     1
 90
        2
 40
-0.6
 41
30.0
 62
     5
 63
     7
 74
     0
 91
        4
 64
     7
 65
   257
 75
     1
175
     1
 42
1.0
 92
        8
 66
   257
 43
1.0
 76
     1
 77
     6
 78
     2
 67
     8
 79
     3
170
     0
171
     0
290
     0
174
     0
 93
        5
 44
0.0
173
     0
291
     0
 45
0.0
1001
ACAD
1000
AcDbSavedByObjectVersion
1070
     0
  0
VISUALSTYLE
  5
DDD
102
{ACAD_XDICTIONARY
360
1295A
102
}
102
{ACAD_REACTORS
330
D6F
102
}
330
D6F
100
AcDbVisualStyle
  2
Shaded with edges
 70
    26
 71
     2
 72
     2
 73
     1
 90
        2
 40
-0.6
 41
30.0
 62
     5
 63
     7
 74
     1
 91
        2
 64
     7
 65
   257
 75
     2
175
     1
 42
1.0
 92
        8
 66
   257
 43
1.0
 76
     1
 77
     6
 78
     2
 67
     7
 79
     3
170
     0
171
     0
290
     0
174
     0
 93
        5
 44
0.0
173
     0
291
     0
 45
0.0
1001
ACAD
1000
AcDbSavedByObjectVersion
1070
     0
  0
VISUALSTYLE
  5
DDA
102
{ACAD_XDICTIONARY
360
12954
102
}
102
{ACAD_REACTORS
330
D6F
102
}
330
D6F
100
AcDbVisualStyle
  2
Shades of Gray
 70
    23
 71
     2
 72
     2
 73
     3
 90
        0
 40
-0.6
 41
-30.0
 62
     5
 63
     7
 74
     2
 91
        2
 64
     7
 65
     7
 75
     1
175
     1
 42
40.0
 92
        8
 66
     7
 43
1.0
 76
     1
 77
     6
 78
     2
 67
     7
 79
     3
170
     0
171
     0
290
     0
174
     0
 93
        1
 44
0.0
173
     0
291
     0
 45
0.0
1001
ACAD
1000
AcDbSavedByObjectVersion
1070
     0
  0
VISUALSTYLE
  5
DDB
102
{ACAD_XDICTIONARY
360
12956
102
}
102
{ACAD_REACTORS
330
D6F
102
}
330
D6F
100
AcDbVisualStyle
  2
Sketchy
 70
    24
 71
     1
 72
     2
 73
     2
 90
        0
 40
-0.6
 41
-30.0
 62
     5
 63
     7
 74
     2
 91
        2
 64
     7
 65
     7
 75
     1
175
     1
 42
40.0
 92
       11
 66
     7
 43
1.0
 76
     1
 77
     6
 78
     2
 67
     7
 79
     6
170
     0
171
     0
290
     0
174
     0
 93
        1
 44
0.0
173
     0
291
     0
 45
0.0
1001
ACAD
1000
AcDbSavedByObjectVersion
1070
     0
  0
VISUALSTYLE
  5
D7C
102
{ACAD_XDICTIONARY
360
12945
102
}
102
{ACAD_REACTORS
330
D6F
102
}
330
D6F
100
AcDbVisualStyle
  2
Thicken
 70
    13
 71
     2
 72
     2
 73
     1
 90
        0
 40
-0.6
 41
-30.0
 62
     5
 63
     7
 74
     1
 91
        4
 64
     7
 65
   257
 75
     1
175
     1
 42
1.0
 92
       12
 66
     7
 43
1.0
 76
     1
 77
     6
 78
     2
 67
     7
 79
     5
170
     0
171
     0
290
     0
174
     0
 93
        1
 44
0.0
173
     0
291
     1
 45
0.0
1001
ACAD
1000
AcDbSavedByObjectVersion
1070
     0
  0
VISUALSTYLE
  5
D76
102
{ACAD_XDICTIONARY
360
12939
102
}
102
{ACAD_REACTORS
330
D6F
102
}
330
D6F
100
AcDbVisualStyle
  2
Wireframe
 70
     5
 71
     0
 72
     2
 73
     0
 90
        0
 40
-0.6
 41
-30.0
 62
     5
 63
     7
 74
     1
 91
        4
 64
     7
 65
   257
 75
     1
175
     1
 42
1.0
 92
        0
 66
   257
 43
1.0
 76
     1
 77
     6
 78
     2
 67
     7
 79
     3
170
     0
171
     0
290
     0
174
     0
 93
        1
 44
0.0
173
     0
291
     0
 45
0.0
1001
ACAD
1000
AcDbSavedByObjectVersion
1070
     0
  0
VISUALSTYLE
  5
DDC
102
{ACAD_XDICTIONARY
360
12958
102
}
102
{ACAD_REACTORS
330
D6F
102
}
330
D6F
100
AcDbVisualStyle
  2
X-Ray
 70
    25
 71
     2
 72
     2
 73
     1
 90
        1
 40
0.5
 41
-30.0
 62
     5
 63
     7
 74
     1
 91
        0
 64
     7
 65
   257
 75
     1
175
     1
 42
1.0
 92
        8
 66
     7
 43
1.0
 76
     1
 77
     6
 78
     2
 67
     7
 79
     3
170
     0
171
     0
290
     0
174
     0
 93
       13
 44
0.0
173
     0
291
     0
 45
0.0
1001
ACAD
1000
AcDbSavedByObjectVersion
1070
     0
  0
DICTIONARYVAR
  5
1270C
102
{ACAD_REACTORS
330
66
102
}
330
66
100
DictionaryVariables
280
     0
  1
0.250000
  0
DICTIONARYVAR
  5
DCE
102
{ACAD_REACTORS
330
66
102
}
330
66
100
DictionaryVariables
280
     0
  1
1'-0" = 1'-0"
  0
DICTIONARYVAR
  5
DCC
102
{ACAD_REACTORS
330
66
102
}
330
66
100
DictionaryVariables
280
     0
  1
STANDARD
  0
DICTIONARYVAR
  5
13F
102
{ACAD_REACTORS
330
66
102
}
330
66
100
DictionaryVariables
280
     0
  1
STANDARD
  0
DICTIONARYVAR
  5
E1B
102
{ACAD_REACTORS
330
66
102
}
330
66
100
DictionaryVariables
280
     0
  1
Imperial24
  0
DICTIONARYVAR
  5
E1C
102
{ACAD_REACTORS
330
66
102
}
330
66
100
DictionaryVariables
280
     0
  1
Imperial24
  0
DICTIONARYVAR
  5
67
102
{ACAD_REACTORS
330
66
102
}
330
66
100
DictionaryVariables
280
     0
  1
2
  0
DICTIONARYVAR
  5
6B
102
{ACAD_REACTORS
330
66
102
}
330
66
100
DictionaryVariables
280
     0
  1
1
  0
DICTIONARYVAR
  5
11247
102
{ACAD_REACTORS
330
66
102
}
330
66
100
DictionaryVariables
280
     0
  1
BYLAYER
  0
DICTIONARYVAR
  5
11245
102
{ACAD_REACTORS
330
66
102
}
330
66
100
DictionaryVariables
280
     0
  1
Hatch
  0
DICTIONARYVAR
  5
11246
102
{ACAD_REACTORS
330
66
102
}
330
66
100
DictionaryVariables
280
     0
  1
ByLayer
  0
DICTIONARYVAR
  5
12892
102
{ACAD_REACTORS
330
66
102
}
330
66
100
DictionaryVariables
280
     0
  1
0
  0
DICTIONARYVAR
  5
DD0
102
{ACAD_REACTORS
330
66
102
}
330
66
100
DictionaryVariables
280
     0
  1
1
  0
DICTIONARYVAR
  5
DD1
102
{ACAD_REACTORS
330
66
102
}
330
66
100
DictionaryVariables
280
     0
  1
15
  0
DICTIONARYVAR
  5
DCF
102
{ACAD_REACTORS
330
66
102
}
330
66
100
DictionaryVariables
280
     0
  1
0
  0
DICTIONARYVAR
  5
DCD
102
{ACAD_REACTORS
330
66
102
}
330
66
100
DictionaryVariables
280
     0
  1
0
  0
DICTIONARYVAR
  5
12891
102
{ACAD_REACTORS
330
66
102
}
330
66
100
DictionaryVariables
280
     0
  1
127
  0
DICTIONARYVAR
  5
12893
102
{ACAD_REACTORS
330
66
102
}
330
66
100
DictionaryVariables
280
     0
  1
0
  0
DICTIONARY
  5
12922
102
{ACAD_REACTORS
330
12920
102
}
330
12920
100
AcDbDictionary
281
     1
  0
DICTIONARY
  5
12921
102
{ACAD_REACTORS
330
12920
102
}
330
12920
100
AcDbDictionary
281
     1
  3
1346549115056
350
1291B
  3
1346549115072
350
1291C
  3
1346549115088
350
1291D
  3
1346549115104
350
1291E
  3
1346549115120
350
1291F
  0
XRECORD
  5
113B
102
{ACAD_REACTORS
330
113A
102
}
330
113A
100
AcDbXrecord
280
     1
330
0
  0
XRECORD
  5
12722
102
{ACAD_XDICTIONARY
360
12723
102
}
102
{ACAD_REACTORS
330
BB
102
}
330
BB
100
AcDbXrecord
280
     1
 91
      535
301

290
     0
302
0
330
0
 90
        8
 62
     5
370
     5
331
16
  1
Color_5
440
        0
330
0
 90
        8
 62
     1
370
    -3
331
16
  1
Color_1
440
        0
330
0
 90
        8
 62
     9
370
    -3
331
16
  1
Color_9
440
        0
330
0
 90
        8
 62
    15
370
    -3
331
0
  1
Color_15
440
        0
330
0
 90
        8
 62
    92
370
     5
331
16
  1
Color_92
440
        0
330
0
 90
        8
 62
     1
370
     5
331
16
  1
Color_1
440
        0
330
0
 90
        8
 62
     7
370
    35
331
16
  1
Color_7
440
        0
330
0
 90
        8
 62
     7
370
    50
331
16
  1
Color_7
440
        0
330
0
 90
        8
 62
     1
370
    -3
331
16
  1
Color_1
440
        0
330
0
 90
        8
 62
   250
370
    -3
331
16
  1
Color_250
440
        0
330
0
 90
        8
 62
     8
370
    -3
331
16
  1
Color_8
440
        0
330
0
 90
        8
 62
   251
370
    -3
331
0
  1
Color_251
440
        0
330
0
 90
        8
 62
    83
370
    -3
331
16
  1
Color_83
440
        0
330
0
 90
        8
 62
     7
370
    -3
331
16
  1
Color_7
440
        0
330
0
 90
        8
 62
     4
370
    -3
331
16
  1
Color_4
440
        0
330
0
 90
        8
 62
    30
370
    -3
331
16
  1
Color_30
440
        0
330
0
 90
        8
 62
   140
370
    -3
331
16
  1
Color_140
440
        0
330
0
 90
        8
 62
     5
370
    -3
331
0
  1
Color_5
440
        0
330
0
 90
        8
 62
     2
370
    -3
331
16
  1
Color_2
440
        0
330
0
 90
        8
 62
     3
370
    -3
331
16
  1
Color_3
440
        0
330
0
 90
        8
 62
   251
370
    -3
331
0
  1
Color_251
440
        0
330
0
 90
        8
 62
     3
370
    -3
331
16
  1
Color_3
440
        0
330
0
 90
        8
 62
     2
370
    -3
331
16
  1
Color_2
440
        0
330
0
 90
        8
 62
   251
370
    -3
331
0
  1
Color_251
440
        0
330
0
 90
        8
 62
   251
370
    -3
331
16
  1
Color_251
440
        0
330
0
 90
        8
 62
   251
370
    -3
331
16
  1
Color_251
440
        0
330
0
 90
        8
 62
   251
370
    -3
331
16
  1
Color_251
440
        0
330
0
 90
        8
 62
   251
370
    -3
331
16
  1
Color_251
440
        0
330
0
 90
        8
 62
   251
370
    -3
331
16
  1
Color_251
440
        0
330
0
 90
        8
 62
     7
370
    -3
331
16
  1
Color_7
440
        0
330
0
 90
        8
 62
     3
370
    -3
331
16
  1
Color_3
440
        0
330
0
 90
        8
 62
    44
370
    -3
331
16
  1
Color_44
440
        0
330
0
 90
        8
 62
   251
370
    -3
331
0
  1
Color_251
440
        0
330
0
 90
        8
 62
     6
370
    -3
331
16
  1
Color_6
440
        0
330
0
 90
        8
 62
   251
370
    -3
331
16
  1
Color_251
440
        0
330
0
 90
        8
 62
     6
370
    -3
331
0
  1
Color_6
440
        0
330
0
 90
        8
 62
     4
370
    -3
331
0
  1
Color_4
440
        0
330
0
 90
        8
 62
     6
370
    -3
331
16
  1
Color_6
440
        0
330
178F
 90
        8
 62
     7
370
    -3
331
16
  1
Color_7
440
        0
330
0
 90
        8
 62
    24
370
    -3
331
16
  1
Color_24
440
        0
330
0
 90
        8
 62
   134
370
    -3
331
16
  1
Color_134
440
        0
330
1789
 90
        8
 62
   251
370
    -3
331
16
  1
Color_251
440
        0
330
0
 90
        8
 62
     3
370
    -3
331
16
  1
Color_3
440
        0
330
0
 90
        8
 62
     7
370
    -3
331
16
  1
Color_7
440
        0
330
1256
 90
        0
 62
   140
370
    -3
331
16
  1
Color_140
440
        0
330
1249
 90
        8
 62
     7
370
    -3
331
16
  1
Color_7
440
        0
330
0
 90
        8
 62
     6
370
    -3
331
16
  1
Color_6
440
        0
330
0
 90
        8
 62
     5
370
    -3
331
16
  1
Color_5
440
        0
330
0
 90
        8
 62
     7
370
    -3
331
16
  1
Color_7
440
        0
330
0
 90
        8
 62
    40
370
    -3
331
16
  1
Color_40
440
        0
330
1019
 90
        8
 62
     4
370
    -3
331
16
  1
Color_4
440
        0
330
A15
 90
        0
 62
     7
370
    -3
331
16
  1
Color_7
440
        0
330
0
 90
        8
 62
     7
370
    -3
331
16
  1
Color_7
440
        0
330
10
 90
        8
 62
     7
370
    -3
331
16
  1
Color_7
440
        0
330
12896
 90
       10
 62
     7
370
    -3
331
16
  1
Color_7
440
        0
330
1289A
 90
       10
 62
     4
370
    -3
331
16
  1
Color_4
440
        0
330
128C2
 90
       10
 62
   251
370
    -3
331
16
  1
Color_251
440
        0
330
128E7
 90
       10
 62
   251
370
    -3
331
16
  1
Color_251
440
        0
330
1290C
 90
       10
 62
   251
370
    -3
331
16
  1
Color_251
440
        0
330
12910
 90
       10
 62
     7
370
    -3
331
16
  1
Color_7
440
        0
330
12913
 90
       10
 62
     7
370
    -3
331
16
  1
Color_7
440
        0
  0
BLOCKLINEARPARAMETER
  5
11673
330
11672
100
AcDbEvalExpr
 90
        1
 98
       33
 99
      248
100
AcDbBlockElement
300
Linear
 98
       25
 99
      104
1071
        1
100
AcDbBlockParameter
280
     1
281
     0
100
AcDbBlock2PtParameter
1010
2.434051674155436
1020
0.0
1030
0.0
1011
3.403996544038419
1021
0.0
1031
0.0
170
     4
 91
        5
 91
        2
 91
        0
 91
        0
171
     1
 92
        5
301
DisplacementX
172
     1
 93
        5
302
DisplacementY
173
     1
 94
        2
303
DisplacementX
174
     1
 95
        2
304
DisplacementY
177
     0
100
AcDbBlockLinearParameter
305
Distance1
306

140
0.1303987674241549
307

 96
        1
141
0.0
142
0.0
143
0.0
175
     0
1001
ACAUTHENVIRON
1010
3.446668811315348
1020
0.0877265001472255
1030
0.0
  0
BLOCKLINEARGRIP
  5
11674
330
11672
100
AcDbEvalExpr
 90
        2
 98
       33
 99
      248
100
AcDbBlockElement
300
End Grip
 98
       25
 99
      104
1071
        0
100
AcDbBlockGrip
 91
        3
 92
        4
1010
3.403996544038419
1020
0.0
1030
0.0
280
     1
 93
       -1
100
AcDbBlockLinearGrip
140
0.9699448698829815
141
0.0
142
0.0
  0
BLOCKGRIPLOCATIONCOMPONENT
  5
11675
330
11672
100
AcDbEvalExpr
 90
        3
 98
       33
 99
      248
  1

 70
    40
140
1.797693134862313E+99
100
AcDbBlockGripExpr
 91
        1
300
UpdatedEndX
  0
BLOCKGRIPLOCATIONCOMPONENT
  5
11676
330
11672
100
AcDbEvalExpr
 90
        4
 98
       33
 99
      248
  1

 70
    40
140
1.797693134862313E+99
100
AcDbBlockGripExpr
 91
        1
300
UpdatedEndY
  0
BLOCKLINEARGRIP
  5
11677
330
11672
100
AcDbEvalExpr
 90
        5
 98
       33
 99
      248
100
AcDbBlockElement
300
Base Grip
 98
       25
 99
      104
1071
        0
100
AcDbBlockGrip
 91
        6
 92
        7
1010
2.434051674155436
1020
0.0
1030
0.0
280
     1
 93
       -1
100
AcDbBlockLinearGrip
140
-0.9699448698829815
141
0.0
142
0.0
  0
BLOCKGRIPLOCATIONCOMPONENT
  5
11678
330
11672
100
AcDbEvalExpr
 90
        6
 98
       33
 99
      248
  1

 70
    40
140
0.0
100
AcDbBlockGripExpr
 91
        1
300
UpdatedBaseX
  0
BLOCKGRIPLOCATIONCOMPONENT
  5
11679
330
11672
100
AcDbEvalExpr
 90
        7
 98
       33
 99
      248
  1

 70
    40
140
0.0
100
AcDbBlockGripExpr
 91
        1
300
UpdatedBaseY
  0
BLOCKSTRETCHACTION
  5
1167A
330
11672
100
AcDbEvalExpr
 90
        8
 98
       33
 99
      248
100
AcDbBlockElement
300
Stretch
 98
       25
 99
      104
1071
        0
100
AcDbBlockAction
 70
     0
 71
     2
330
1166B
330
11674
1010
3.446668811315348
1020
0.0877265001472255
1030
0.0
100
AcDbBlockStretchAction
 92
        1
301
EndXDelta
 93
        1
302
EndYDelta
 72
     2
1011
3.403996544038419
1021
0.0
1011
4.899688871748726
1021
-0.210256985285449
 73
     1
331
1166B
 74
     1
 94
        1
 75
     0
140
1.0
141
0.0
280
     0
  0
XRECORD
  5
12965
102
{ACAD_REACTORS
330
12964
102
}
330
12964
100
AcDbXrecord
280
     1
1070
     0
1070
     1
1070
     1
  0
XRECORD
  5
12970
102
{ACAD_REACTORS
330
1296F
102
}
330
1296F
100
AcDbXrecord
280
     1
1070
     0
1070
     1
1070
     1
  0
XRECORD
  5
12973
102
{ACAD_REACTORS
330
12972
102
}
330
12972
100
AcDbXrecord
280
     1
1070
     0
1070
     1
1070
     1
  0
DICTIONARY
  5
128A3
102
{ACAD_REACTORS
330
128A2
102
}
330
128A2
100
AcDbDictionary
281
     1
  0
DICTIONARY
  5
128BE
102
{ACAD_REACTORS
330
128A2
102
}
330
128A2
100
AcDbDictionary
281
     1
  0
DICTIONARY
  5
128C8
102
{ACAD_REACTORS
330
128C7
102
}
330
128C7
100
AcDbDictionary
281
     1
  0
DICTIONARY
  5
128E3
102
{ACAD_REACTORS
330
128C7
102
}
330
128C7
100
AcDbDictionary
281
     1
  0
DICTIONARY
  5
128ED
102
{ACAD_REACTORS
330
128EC
102
}
330
128EC
100
AcDbDictionary
281
     1
  0
DICTIONARY
  5
12908
102
{ACAD_REACTORS
330
128EC
102
}
330
128EC
100
AcDbDictionary
281
     1
  0
DICTIONARY
  5
C573
102
{ACAD_REACTORS
330
C572
102
}
330
C572
100
AcDbDictionary
281
     1
  0
DICTIONARY
  5
C579
102
{ACAD_REACTORS
330
C578
102
}
330
C578
100
AcDbDictionary
281
     1
  0
DICTIONARY
  5
C57F
102
{ACAD_REACTORS
330
C57E
102
}
330
C57E
100
AcDbDictionary
281
     1
  0
ACDB_BLOCKREPRESENTATION_DATA
  5
C584
102
{ACAD_REACTORS
330
C583
102
}
330
C583
100
AcDbBlockRepresentationData
 70
     1
340
148A
  0
DICTIONARY
  5
1174E
102
{ACAD_REACTORS
330
C583
102
}
330
C583
100
AcDbDictionary
280
     1
281
     1
  3
ACAD_ENHANCEDBLOCKDATA
360
1174F
  0
DICTIONARY
  5
C58A
102
{ACAD_REACTORS
330
C589
102
}
330
C589
100
AcDbDictionary
281
     1
  3
*A1
350
C58B
  0
DICTIONARY
  5
C58F
102
{ACAD_REACTORS
330
C58E
102
}
330
C58E
100
AcDbDictionary
281
     1
  3
*A1
350
C590
  0
DICTIONARY
  5
C594
102
{ACAD_REACTORS
330
C593
102
}
330
C593
100
AcDbDictionary
281
     1
  3
*A1
350
C595
  0
DICTIONARY
  5
C599
102
{ACAD_REACTORS
330
C598
102
}
330
C598
100
AcDbDictionary
281
     1
  3
*A1
350
C59A
  0
DICTIONARY
  5
C59E
102
{ACAD_REACTORS
330
C59D
102
}
330
C59D
100
AcDbDictionary
281
     1
  3
*A1
350
C59F
  0
DICTIONARY
  5
C5A3
102
{ACAD_REACTORS
330
C5A2
102
}
330
C5A2
100
AcDbDictionary
281
     1
  3
*A1
350
C5A4
  0
DICTIONARY
  5
C5A8
102
{ACAD_REACTORS
330
C5A7
102
}
330
C5A7
100
AcDbDictionary
281
     1
  3
*A1
350
C5A9
  0
DICTIONARY
  5
C4AB
102
{ACAD_REACTORS
330
C4AA
102
}
330
C4AA
100
AcDbDictionary
281
     1
  0
DICTIONARY
  5
C4B0
102
{ACAD_REACTORS
330
C4AF
102
}
330
C4AF
100
AcDbDictionary
281
     1
  0
DICTIONARY
  5
C4B7
102
{ACAD_REACTORS
330
C4B6
102
}
330
C4B6
100
AcDbDictionary
281
     1
  0
DICTIONARY
  5
C4BC
102
{ACAD_REACTORS
330
C4BB
102
}
330
C4BB
100
AcDbDictionary
281
     1
  0
DICTIONARY
  5
C4C2
102
{ACAD_REACTORS
330
C4C1
102
}
330
C4C1
100
AcDbDictionary
281
     1
  0
DICTIONARY
  5
C4D7
102
{ACAD_REACTORS
330
C4D6
102
}
330
C4D6
100
AcDbDictionary
281
     1
  0
DICTIONARY
  5
C4DC
102
{ACAD_REACTORS
330
C4DB
102
}
330
C4DB
100
AcDbDictionary
281
     1
  0
DICTIONARY
  5
C4E1
102
{ACAD_REACTORS
330
C4E0
102
}
330
C4E0
100
AcDbDictionary
281
     1
  0
DICTIONARY
  5
C4E5
102
{ACAD_REACTORS
330
C4E4
102
}
330
C4E4
100
AcDbDictionary
281
     1
  0
DICTIONARY
  5
11CFD
102
{ACAD_REACTORS
330
11CFC
102
}
330
11CFC
100
AcDbDictionary
281
     1
  0
DICTIONARY
  5
12960
330
E0D
100
AcDbDictionary
280
     1
281
     1
  3
ACAD_XREC_ROUNDTRIP
360
12961
  0
DICTIONARY
  5
C4EF
330
C4EE
100
AcDbDictionary
280
     1
281
     1
  3
ACAD_XREC_ROUNDTRIP
360
1296C
  0
DICTIONARY
  5
12923
330
22
100
AcDbDictionary
280
     1
281
     1
  3
ACAD_XREC_ROUNDTRIP
360
12924
  0
DICTIONARY
  5
DE7
330
D6D
100
AcDbDictionary
280
     1
281
     1
  3
ACAD_XREC_ROUNDTRIP
360
1292B
  3
FBXASSET
360
DE8
  0
DICTIONARY
  5
DE5
330
D6C
100
AcDbDictionary
280
     1
281
     1
  3
ACAD_XREC_ROUNDTRIP
360
1292A
  3
FBXASSET
360
DE6
  0
DICTIONARY
  5
DE9
330
D6E
100
AcDbDictionary
280
     1
281
     1
  3
ACAD_XREC_ROUNDTRIP
360
1292C
  3
FBXASSET
360
DEA
  0
DICTIONARY
  5
1296D
330
CE14
100
AcDbDictionary
280
     1
281
     1
  3
ACAD_XREC_ROUNDTRIP
360
1296E
  0
DICTIONARY
  5
12962
330
EF5
100
AcDbDictionary
280
     1
281
     1
  3
ACAD_XREC_ROUNDTRIP
360
12963
  0
DICTIONARY
  5
12926
330
6ED
100
AcDbDictionary
280
     1
281
     1
  3
ACAD_XREC_ROUNDTRIP
360
12927
  0
DICTIONARY
  5
12928
330
6F6
100
AcDbDictionary
280
     1
281
     1
  3
ACAD_XREC_ROUNDTRIP
360
12929
  0
DICTIONARY
  5
1295E
330
E0B
100
AcDbDictionary
280
     1
281
     1
  3
ACAD_XREC_ROUNDTRIP
360
1295F
  0
DICTIONARY
  5
12894
330
87
100
AcDbDictionary
280
     1
281
     1
  3
ACAD_ROUNDTRIP_2008_TABLESTYLE_CELLSTYLEMAP
360
12895
  3
ACAD_XREC_ROUNDTRIP
360
12925
  0
DICTIONARY
  5
12937
330
D75
100
AcDbDictionary
280
     1
281
     1
  3
ACAD_XREC_ROUNDTRIP
360
12938
  0
DICTIONARY
  5
12967
330
17CF
100
AcDbDictionary
280
     1
281
     1
  3
ACAD_XREC_ROUNDTRIP
360
12968
  0
DICTIONARY
  5
12935
330
D74
100
AcDbDictionary
280
     1
281
     1
  3
ACAD_XREC_ROUNDTRIP
360
12936
  0
DICTIONARY
  5
12943
330
D7B
100
AcDbDictionary
280
     1
281
     1
  3
ACAD_XREC_ROUNDTRIP
360
12944
  0
DICTIONARY
  5
1294B
330
D7F
100
AcDbDictionary
280
     1
281
     1
  3
ACAD_XREC_ROUNDTRIP
360
1294C
  0
DICTIONARY
  5
1293D
330
D78
100
AcDbDictionary
280
     1
281
     1
  3
ACAD_XREC_ROUNDTRIP
360
1293E
  0
DICTIONARY
  5
12941
330
D7A
100
AcDbDictionary
280
     1
281
     1
  3
ACAD_XREC_ROUNDTRIP
360
12942
  0
DICTIONARY
  5
12951
330
DA1
100
AcDbDictionary
280
     1
281
     1
  3
ACAD_XREC_ROUNDTRIP
360
12952
  0
DICTIONARY
  5
12949
330
D7E
100
AcDbDictionary
280
     1
281
     1
  3
ACAD_XREC_ROUNDTRIP
360
1294A
  0
DICTIONARY
  5
1292D
330
D70
100
AcDbDictionary
280
     1
281
     1
  3
ACAD_XREC_ROUNDTRIP
360
1292E
  0
DICTIONARY
  5
1292F
330
D71
100
AcDbDictionary
280
     1
281
     1
  3
ACAD_XREC_ROUNDTRIP
360
12930
  0
DICTIONARY
  5
12931
330
D72
100
AcDbDictionary
280
     1
281
     1
  3
ACAD_XREC_ROUNDTRIP
360
12932
  0
DICTIONARY
  5
12933
330
D73
100
AcDbDictionary
280
     1
281
     1
  3
ACAD_XREC_ROUNDTRIP
360
12934
  0
DICTIONARY
  5
1293B
330
D77
100
AcDbDictionary
280
     1
281
     1
  3
ACAD_XREC_ROUNDTRIP
360
1293C
  0
DICTIONARY
  5
1294D
330
D9F
100
AcDbDictionary
280
     1
281
     1
  3
ACAD_XREC_ROUNDTRIP
360
1294E
  0
DICTIONARY
  5
12947
330
D7D
100
AcDbDictionary
280
     1
281
     1
  3
ACAD_XREC_ROUNDTRIP
360
12948
  0
DICTIONARY
  5
1294F
330
DA0
100
AcDbDictionary
280
     1
281
     1
  3
ACAD_XREC_ROUNDTRIP
360
12950
  0
DICTIONARY
  5
1293F
330
D79
100
AcDbDictionary
280
     1
281
     1
  3
ACAD_XREC_ROUNDTRIP
360
12940
  0
DICTIONARY
  5
1295C
330
DDE
100
AcDbDictionary
280
     1
281
     1
  3
ACAD_XREC_ROUNDTRIP
360
1295D
  0
DICTIONARY
  5
1295A
330
DDD
100
AcDbDictionary
280
     1
281
     1
  3
ACAD_XREC_ROUNDTRIP
360
1295B
  0
DICTIONARY
  5
12954
330
DDA
100
AcDbDictionary
280
     1
281
     1
  3
ACAD_XREC_ROUNDTRIP
360
12955
  0
DICTIONARY
  5
12956
330
DDB
100
AcDbDictionary
280
     1
281
     1
  3
ACAD_XREC_ROUNDTRIP
360
12957
  0
DICTIONARY
  5
12945
330
D7C
100
AcDbDictionary
280
     1
281
     1
  3
ACAD_XREC_ROUNDTRIP
360
12946
  0
DICTIONARY
  5
12939
330
D76
100
AcDbDictionary
280
     1
281
     1
  3
ACAD_XREC_ROUNDTRIP
360
1293A
  0
DICTIONARY
  5
12958
330
DDC
100
AcDbDictionary
280
     1
281
     1
  3
ACAD_XREC_ROUNDTRIP
360
12959
  0
XRECORD
  5
1291B
102
{ACAD_REACTORS
330
12921
102
}
330
12921
100
AcDbXrecord
280
     1
  1
AcDb_Thumbnail_Schema
102
{ATTRRECORD
341
1291C
  2
AcDbDs::TreatedAsObjectData
280
     1
291
     1
102
ATTRRECORD}
102
{ATTRRECORD
341
1291D
  2
AcDbDs::Legacy
280
     1
291
     1
102
ATTRRECORD}
  2
AcDbDs::ID
280
    10
 91
        8
102
{ATTRRECORD
341
1291E
  2
AcDs:Indexable
280
     1
291
     1
102
ATTRRECORD}
102
{ATTRRECORD
341
1291F
  2
AcDbDs::HandleAttribute
280
     7
282
     1
102
ATTRRECORD}
  2
Thumbnail_Data
280
    15
 91
        0
  0
XRECORD
  5
1291C
102
{ACAD_REACTORS
330
12921
102
}
330
12921
100
AcDbXrecord
280
     1
  1
AcDbDs::TreatedAsObjectDataSchema
  2
AcDbDs::TreatedAsObjectData
280
     1
 91
        0
  0
XRECORD
  5
1291D
102
{ACAD_REACTORS
330
12921
102
}
330
12921
100
AcDbXrecord
280
     1
  1
AcDbDs::LegacySchema
  2
AcDbDs::Legacy
280
     1
 91
        0
  0
XRECORD
  5
1291E
102
{ACAD_REACTORS
330
12921
102
}
330
12921
100
AcDbXrecord
280
     1
  1
AcDbDs::IndexedPropertySchema
  2
AcDs:Indexable
280
     1
 91
        0
  0
XRECORD
  5
1291F
102
{ACAD_REACTORS
330
12921
102
}
330
12921
100
AcDbXrecord
280
     1
  1
AcDbDs::HandleAttributeSchema
  2
AcDbDs::HandleAttribute
280
     7
 91
        1
284
     1
  0
DICTIONARY
  5
12723
330
12722
100
AcDbDictionary
280
     1
281
     1
  3
AcadLayerStateAnnoScale
360
12724
  0
DICTIONARY
  5
1174F
102
{ACAD_REACTORS
330
1174E
102
}
330
1174E
100
AcDbDictionary
280
     1
281
     1
  3
1
360
11750
  3
8
360
11751
  0
ACDB_BLKREFOBJECTCONTEXTDATA_CLASS
  5
C58B
102
{ACAD_REACTORS
330
C58A
102
}
330
C58A
100
AcDbObjectContextData
 70
     3
290
     1
100
AcDbAnnotScaleObjectContextData
340
DC2
 50
0.0
 10
1567.051455596603
 20
1005.226158070878
 30
0.0
 41
1.5
 42
1.5
 43
1.5
  0
ACDB_MTEXTATTRIBUTEOBJECTCONTEXTDATA_CLASS
  5
C590
102
{ACAD_REACTORS
330
C58F
102
}
330
C58F
100
AcDbObjectContextData
 70
     3
290
     1
100
AcDbAnnotScaleObjectContextData
340
DC2
 70
     1
 50
0.0
 10
1567.274552347423
 20
1005.268149057437
 11
1567.44307136736
 21
1005.268149057437
290
     0
  0
ACDB_MTEXTATTRIBUTEOBJECTCONTEXTDATA_CLASS
  5
C595
102
{ACAD_REACTORS
330
C594
102
}
330
C594
100
AcDbObjectContextData
 70
     3
290
     1
100
AcDbAnnotScaleObjectContextData
340
DC2
 70
     1
 50
0.0
 10
1567.429746879406
 20
1004.942142587655
 11
1567.429746879406
 21
1004.942142587655
290
     0
  0
ACDB_MTEXTATTRIBUTEOBJECTCONTEXTDATA_CLASS
  5
C59A
102
{ACAD_REACTORS
330
C599
102
}
330
C599
100
AcDbObjectContextData
 70
     3
290
     1
100
AcDbAnnotScaleObjectContextData
340
DC2
 70
     0
 50
0.0
 10
1568.451386613913
 20
1005.288678769057
 11
0.0
 21
0.0
290
     0
  0
ACDB_MTEXTATTRIBUTEOBJECTCONTEXTDATA_CLASS
  5
C59F
102
{ACAD_REACTORS
330
C59E
102
}
330
C59E
100
AcDbObjectContextData
 70
     3
290
     1
100
AcDbAnnotScaleObjectContextData
340
DC2
 70
     0
 50
0.0
 10
1570.401996068798
 20
1005.281314268277
 11
0.0
 21
0.0
290
     0
  0
ACDB_MTEXTATTRIBUTEOBJECTCONTEXTDATA_CLASS
  5
C5A4
102
{ACAD_REACTORS
330
C5A3
102
}
330
C5A3
100
AcDbObjectContextData
 70
     3
290
     1
100
AcDbAnnotScaleObjectContextData
340
DC2
 70
     0
 50
0.0
 10
1569.320475476004
 20
1004.976034163532
 11
0.0
 21
0.0
290
     0
  0
ACDB_MTEXTATTRIBUTEOBJECTCONTEXTDATA_CLASS
  5
C5A9
102
{ACAD_REACTORS
330
C5A8
102
}
330
C5A8
100
AcDbObjectContextData
 70
     3
290
     1
100
AcDbAnnotScaleObjectContextData
340
DC2
 70
     0
 50
0.0
 10
1571.175836369536
 20
1004.979692610015
 11
0.0
 21
0.0
290
     0
  0
XRECORD
  5
12961
102
{ACAD_REACTORS
330
12960
102
}
330
12960
100
AcDbXrecord
280
     1
102
DISPLAYNAME
  1
Imperial24
102
FLAGS
 90
        0
  0
XRECORD
  5
1296C
102
{ACAD_REACTORS
330
C4EF
102
}
330
C4EF
100
AcDbXrecord
280
     1
102
SHADEPLOT
 70
     0
102
SHADEPLOTRESLEVEL
 70
     2
102
SHADEPLOTCUSTOMDPI
 70
   300
  0
XRECORD
  5
12924
102
{ACAD_REACTORS
330
12923
102
}
330
12923
100
AcDbXrecord
280
     1
102
SHADEPLOT
 70
     0
102
SHADEPLOTRESLEVEL
 70
     2
102
SHADEPLOTCUSTOMDPI
 70
   300
  0
XRECORD
  5
1292B
102
{ACAD_REACTORS
330
DE7
102
}
330
DE7
100
AcDbXrecord
280
     1
102
MATERIAL
148
0.0
149
0.0
149
0.0
 93
        0
 94
       63
282
     0
 72
     1
 77
     1
171
     1
175
     1
179
     1
273
     0
  0
XRECORD
  5
DE8
102
{ACAD_REACTORS
330
DE7
102
}
330
DE7
100
AcDbXrecord
280
     1
 70
     1
 90
2070111275
  1
11DBBE2F-1C72-468D-83EE-0086BF965E7A
310
504B03040A00000800001971623B3DEE336E79000000790000001B0000006175746F6465736B2D64657369676E2D7061636B6167652E786D6C3C3F786D6C2076657273696F6E3D22312E302220656E636F64696E673D227574662D3822203F3E3C666F726D6174733E3C666F726D61743E687474703A2F2F736368656D612E
310
6175746F6465736B2E636F6D2F64657369676E2D7061636B6167652F323030393C2F666F726D61743E3C2F666F726D6174733E504B03041400060808001971623BD486FD9CA0000000F4000000130000005B436F6E74656E745F54797065735D2E786D6C7D8EC10E82300C865F65E91D8A1E8C310C0EEA1BF002731658846E
310
D98AC1B77784ABF1D8FE5FBFBF75BBCE937A534CCEB38643598122B6FEE978D0B0485F9C41B54DDD7D022595594E1A469170414C76A4D9A4D207E29CF43ECE46F218070CC6BECC4078ACAA135ACF422C856C0E68EA1BF5669944DDD7BCDE7B1F8E415D77AECB980613C2E4AC91FC167A2B244592486606FC29C8FD7F045B9A
310
EF7053A7E60B504B03041400060808001971623B8279B6DBEB0000007C01000008000000636F72652E786D6C8D904D6EC3201085AF82665B6183EDD46E8489EA583E412F8080B8283158FC543D7E71E248EDAE1B66F478DFCCE8B1D3F772435FDA07E36C0FB42080B4954E193BF790E20577804E9C79E7E22F1B202B16DDC3
310
260367B37769DD25E96CD43666D53AA5775184A0232079CB4D0F417EEA451422C5EC08D76215F22A665DD06797E1948C428F2546E579E662B4075E4FEFCDB96E097E1DC6093735AD7047EA09B78766E886F14CDB6164E5067316CDF2DC2FBD16512BE015216F98524CAA0FDA1C49773CD097FC12C2CACDFE074AABFA27948C
310
8D75B59FFBC002709A0FB97F70566E59E4720F2AD72D37FE03504B03041400060808001971623B55019EA25F0000007C00000007000000636E782E786D6C4DCB3B0E80201045D1AD90E915ED2CF8AC45050C11660C8261F98AB1B07AC9C97D42D718D865D3E909258CFD00CCE24AC6E326A164D74DC0B4128928FF32603847
310
2BA13128B1252AC747C6BAB984FC68F0B87FE8960A5C09FE86CFB69FBA01504B03041400060808001971623BC1B11CCD70010000D40300000C0000006662782F636F72652E786D6CC553D16E832014FD15C2EBA280DAD5354833DBF40BF60354A933553008A69FBF6BB5E9BA744DF7341F909C732FE7DC83F2F5A96DD0A06C
310
5F1B9D6116528C942E4C59EB2AC3DE1D8214A3B5E0D618F7AD0C232D5B95E111C68257D6F86E860AA39DD20E506D4A3583B2EF95C3A8686093E1BEF854AD0CA57750D11FC34E164759A9908540439DE0BDB360004D22E38AC5617FE264C205F7BE2E67B62E41AD3ED4CA6211EFDE934DBCA4C16BBEDD0549CCA220A5F12E58
310
2E923CCDB71BB6CCB79C8CCD82BBBABDB82BAC924E95584494BE058C0534FA60C98AA6AB057B8195524EC6F29B26DF954F36F95ABB389AED4E6D3D160C8C9C891FD342440EF572003F4470328608AF73C2B741432010B293FBE632C711A04115CED80498D2F82B35C8C62B50A5213D3FE8F70D275327A89E0F87A9EF6A444F
310
6B3C3E11AE5AEA0A86900EB67BEF469F7CF23087D6291B0CEE84B4B1AD6C9E1BE3C1847FA2AEE6EF5A2A4C63EC7F3922F30591F9F320E3FF28BE00504B03041400060808001971623B53FC3C577D0000009D0000000B0000006662782F636E782E786D6C4DCCD10A83201886E15B91FFDCA5E14A410D92BA8F581632D3703A
310
76F9ABD1C18E3E78F87865F7D93C7ADBF4723128A03702C886479C5D581594BC600EA8D332C598FF6E80C2B459052783966B8A65BF68B6CB547C3ED4BBF0BC7064CCD09A704C09119899866031983BEEDB9A0FCD28DAA637506959FD4AC79E61FD05504B03041400060808001971623B14AE010F2801000012020000310000
310
006662782F46343443313230382D313030392D344336302D394543352D4237323845364639373642432F636F72652E786D6C8D515B6EC32010BC0AE22B55651B5CDB71224CA458C9097A0162888B1283C5A3CAF1BBD48ED4FEE58745B333B303CB0E8FE98EBE95F3DA9A0ED39C60A4CC60A536638763B8662D4607CE9CB5E1
310
0F0D232326D5E10463CE4667E3BC428335419900A8B152ADA0F05E058C863B5C3AEC872F35895CC4000C7FCB6731DCC4A8729A431B789CF9E020005A86A413F37355F5B4246D4609D96555DF906C77EAEBECB82DDB5373DE6D9B63CF8A45C8598C5AAE722D218EBE6AE55E354962CE829E9EF107A7445012F332CDA63423E5
310
27ADF6A4DDD7F41D4E425891E8FF4471962F8AA236E1A35CE32E328F3965C5D2E04CDA78B93FC3A8C76C5D4069DEC6ABE10D7392135297B465C54284E7836353AD8E3E5807DFBBB95D804BEBC5B6A9382BD286A0FCAE0F6ADA26FF01504B03041400060808001971623B85CE68B04D01000033030000300000006662782F46
310
343443313230382D313030392D344336302D394543352D4237323845364639373642432F636E782E786D6CD593BB6E032110457F05D146FBC0D9588EC5622945BE20455A0CE3989885158F28FEFB0C3676DCB8489966B4BA7367EEE888E59BEFC9922F08D1783752D6F69480535E1BF731D29C76CD8A928DE0C1FB7463A3C4
310
C909465A642AF847F079AE92869DCC36A16A8D3B543140F439288828974962BD921617806B328A306D416BD0E46AC4AF1D043C05C5ED91A43D90D79777E2B79FA052E45DD922785732042FB526DD98285156C638D2A8F630C956E6E435C443AB65922D6B2F59776EFADD44CAC0253207434AF8484BA5A25ED42247DE6153F0
310
9802D2ABA6749C810A39CFD62899107277329E3D8267E3D272A85E83E003BAD9F2711870D9A92778321354870A2013682A167DFFDC30D6F48B3736ACFBD5FA893D60ED7BDE15BBE05BEF6D1DC23510FC4C9477095CA282F1AEB4EFE1AB3EA24D40D63E1CFF001201D4D4339DEB8EFFCCA73BBD6FC415F02F103F504B030414
310
00060808001971623B24E50A42660500003C100000340000006662782F46343443313230382D313030392D344336302D394543352D4237323845364639373642432F6F626A656374732E786D6CAD575B6FA33818FD2B887D0E8424BDAD28A32669AB68D499D14433DA874A910187B2051BD9A64DF7D7EF31180224ED642F79
310
08D8D8DFF57CC79FFD4FBB3CB35EA8902967D7B6E78C6D8BB288C7294BAEED526D4797B6F529F005E7AAB3CCB618C9E9B5ADA7EDC04F042F0B3315D32D29333598BD9BFF61C988326A5B5146A4BCB665F44473E29052F198CA6727268A38C976E7784EBDB02F3611A4781A082D88A04CC152CC3348B16AA3BCFE706CBB81EF
310
EAEF81AFFFCDAAE9FBABDCCA9FBEFE9449455874A06C2066EACD96B793B3ABD1D96C361DCDCE27DE687E375F8EBC8BE97871BE585CDDDC5E41B15402928C25826EEDE01EB11169E4BBF5A7D66263F8319322CE188D2AFFE16165B39118D382B218794CA984B68ED7E3FED0D3B1E97C9EEAB151D99D3ECDABEE8E8EA0C6F6E6
310
D9B594877FC205790A2A84A41A55757C8CA335FEC6FBA8859C67E65B2AAD9C282A529259591A0A22DEEC004BF592C0EF89D1E8141AE1DA033BF0F6F2BAB6A2347E8DDD63566ECB2CD3D0B4830AD91BE09F2A595996FE45C5716DB009B92A53A62E8D43EAADA07670E5BBD564E0EBC774623ED681B4B619499072B8597F1D38
310
BAD0B5B75ADAC1E7BB70B7D6F5785C7921784185D2F001B49AC4354F1D25A3D63B29737A039CE9C57C1F94EF88FC1794EFDE14E44DA4BBD96E66B4284198DC72912337CEB8FA59E3E665D4BE1DBE80CF06AB0FD7B433FF6AB1EFB6C6F609E3BDFC015C3A3597FF3D7FFD987591DA495FE0BFA0C0B8989A50AE2392817A1E52
310
868468505A19C714B87C1BEEEC6005A604B36317C9823620072FBEFB82EFF8AF6583AD2AF59D274342077C7B02F323965559C0B677C072C0939562E3DC7B313FFB5F6AE666B9FEBC2EC59644F4C110CB926E53962A9C9D7BF0760DEA25A2E7D1337D7BE52286A38749587793901B5512D1D631D7814F9AC3420FF69A7B0A22
310
EC4BB8E63CFF171A1E5219D12C238CF2B2D1D21E431AAB2DC9983E01555807743A19A058D097547712BD153DB370D647222D74C8DA43AFE569E71D5F7EACBE009476307F9B03ADCFFB55E19EEE239E71B109DF363513DA001FF6F4D1FDB30F6F1351574B01E22B2C37946342BC89D3EDB694E0DD2351FCB95A7433D512C9E1
310
4B53408DC6BA26676067D41E1106BE8D4E340482E060E76C93E21847591E55DED53D54202BB9EFC80FCBBCD8909C974C9D12A671E34F637D2BBCDBC5C857A2A2273B5857CFD11C941DD3789FAA1E0AF41174C4A77E7ABCE57C7E3BB91B798B8B095AA9CBE5E8727A7B3B1A8F2FCFE77757E767B71737AD45952581DF9C50DD
310
1A44347122FAA5484D987FACF6656B070F4449F7BE2E2837A99F3F560EDA62DFC51E00BCDDB8CA8B8CE69429A2E1FBA05FB2EF045D454F463DBFCA49424F90F2F57E3DB0013327ECFBA64B8DBE0EF69AD985AE85A342D45399878CA4D960A371DC295862DC6E42D93E6B466F867A64E2893E54F22C8D4138B195509E5305DA
310
3981ED454E2510D3EDCA63737B3861F74BDD0F2A1266B4B1E489A025CE24500DB89591EACF5BBFA185D35DD4B58DC3CE79C69F2944DB42AAAF6DF09B4A232A9D10C7A36E7C2AE18000BAB096040135C2920C9D75BDA91DB7BB746C403F38018DFE76C929DD92F1AB47BC39290A9CDA3D5AAD6C330AA27FE478638E45145EC3
310
52B5BEEC275A672A35A8ACDA297337400BF16C54EF505F1FBBE539D59A5E444EBA277D08825AEA48119154F7026D9F31E966F9CD452B60ADBE5A455626C8E5E992468202CCA52E70A008A830320BA200D5C5EF8FDF04C75D34B7EE5240E071C1F39C3333B83177596BFD849B69FC085AA0FAFA212763CF7BACBA7E7311D984
310
445287C4F219134DC1690F065803200F8E53930257E760B07CB5B4CC813183D00AB4074D697D0DB7503CFAE6A84BA54B96C5878DBF5B2D0518045AF6E06F504B03041400060800001971623B000000000000000000000000350000006662782F46343443313230382D313030392D344336302D394543352D42373238453646
310
39373642432F76657274696365732E62696E504B03041400060808001971623BF270F1330600000004000000360000006662782F46343443313230382D313030392D344336302D394543352D4237323845364639373642432F747269616E676C65732E62696E636660600000504B03041400060800001971623B0000000000
310
00000000000000370000006662782F46343443313230382D313030392D344336302D394543352D4237323845364639373642432F617474726962757465732E62696E504B03041400060808001971623B08DA0BD19000000041010000360000006662782F46343443313230382D313030392D344336302D394543352D423732
310
3845364639373642432F6469726563746F72792E786D6C858F410AC3201045AF22B36F53E9A60B35CBEEBAE80D244E44489C6234F4F835464A48035D0DF398FF9F8AF63D0E6CC63039F212F8F9020C7D47C6792B21C5FE7403D62A1188E2E60C98D7234A5830286103A55745067B9D86B8A3CF9C7F90C11DE607FB144396D7
310
B6A82D282E9A152AD114D5EF2CB866EEE831B8EEA07A7BB5A8D7D61A2BAAEB7FD5F70921FF497D00504B03041400060808001971623B0694687CFD000000A00100003B0000006662782F46343443313230382D313030392D344336302D394543352D4237323845364639373642432F7265736F75726365732F636F72652E78
310
6D6C8D504B6E833010BD0A9A6D65B0812434328E4A1027E8052C33A156828DFCA97AFC9A40A576D7CDCCE87D344F8F5FBEE647F689CE6B6B5A6039850C8DB2A336530B31DC4803D94570676DF82583CCC8195B5861107C72362E3BA4AC096842428D1D7107A5F71820538F74B4E0D507CE3297312485BFE78B54773961CEF2
310
44279DE03EB81420DB9EAC1384436FA353E879B1B182C7A8C75DA3C7F453DF343A10D5F0565FABE3408E5D3F90BA622569683590D3A1EE9AAEBFB253D7F362350B1EF4FC9351399401471025A5AF843142CB77569F69733EB0973429E5C52AFF638ACBF84F53D42654E51E77B379102C05791282176B5F693DCB4C7BED567C
310
03504B010214000A00000800001971623B3DEE336E79000000790000001B00000000000000000000000000000000006175746F6465736B2D64657369676E2D7061636B6167652E786D6C504B010214001400060808001971623BD486FD9CA0000000F40000001300000000000000000000000000B20000005B436F6E74656E
310
745F54797065735D2E786D6C504B010214001400060808001971623B8279B6DBEB0000007C010000080000000000000000000000000083010000636F72652E786D6C504B010214001400060808001971623B55019EA25F0000007C000000070000000000000000000000000094020000636E782E786D6C504B010214001400
310
060808001971623BC1B11CCD70010000D40300000C00000000000000000000000000180300006662782F636F72652E786D6C504B010214001400060808001971623B53FC3C577D0000009D0000000B00000000000000000000000000B20400006662782F636E782E786D6C504B010214001400060808001971623B14AE010F
310
28010000120200003100000000000000000000000000580500006662782F46343443313230382D313030392D344336302D394543352D4237323845364639373642432F636F72652E786D6C504B010214001400060808001971623B85CE68B04D010000330300003000000000000000000000000000CF0600006662782F4634
310
3443313230382D313030392D344336302D394543352D4237323845364639373642432F636E782E786D6C504B010214001400060808001971623B24E50A42660500003C10000034000000000000000000000000006A0800006662782F46343443313230382D313030392D344336302D394543352D4237323845364639373642
310
432F6F626A656374732E786D6C504B010214001400060800001971623B0000000000000000000000003500000000000000000000000000220E00006662782F46343443313230382D313030392D344336302D394543352D4237323845364639373642432F76657274696365732E62696E504B01021400140006080800197162
310
3BF270F13306000000040000003600000000000000000000000000750E00006662782F46343443313230382D313030392D344336302D394543352D4237323845364639373642432F747269616E676C65732E62696E504B010214001400060800001971623B0000000000000000000000003700000000000000000000000000
310
CF0E00006662782F46343443313230382D313030392D344336302D394543352D4237323845364639373642432F617474726962757465732E62696E504B010214001400060808001971623B08DA0BD190000000410100003600000000000000000000000000240F00006662782F46343443313230382D313030392D34433630
310
2D394543352D4237323845364639373642432F6469726563746F72792E786D6C504B010214001400060808001971623B0694687CFD000000A00100003B00000000000000000000000000081000006662782F46343443313230382D313030392D344336302D394543352D4237323845364639373642432F7265736F75726365
310
732F636F72652E786D6C504B0506000000000E000E00800400005E1100000000
  0
XRECORD
  5
1292A
102
{ACAD_REACTORS
330
DE5
102
}
330
DE5
100
AcDbXrecord
280
     1
102
MATERIAL
148
0.0
149
0.0
149
0.0
 93
        0
 94
       63
282
     0
 72
     1
 77
     1
171
     1
175
     1
179
     1
273
     0
  0
XRECORD
  5
DE6
102
{ACAD_REACTORS
330
DE5
102
}
330
DE5
100
AcDbXrecord
280
     1
 70
     1
 90
2070111275
  1
05B6ECF0-85B6-4F46-8237-25C475D76DCE
310
504B03040A00000800001971623B3DEE336E79000000790000001B0000006175746F6465736B2D64657369676E2D7061636B6167652E786D6C3C3F786D6C2076657273696F6E3D22312E302220656E636F64696E673D227574662D3822203F3E3C666F726D6174733E3C666F726D61743E687474703A2F2F736368656D612E
310
6175746F6465736B2E636F6D2F64657369676E2D7061636B6167652F323030393C2F666F726D61743E3C2F666F726D6174733E504B03041400060808001971623BD486FD9CA0000000F4000000130000005B436F6E74656E745F54797065735D2E786D6C7D8EC10E82300C865F65E91D8A1E8C310C0EEA1BF002731658846E
310
D98AC1B77784ABF1D8FE5FBFBF75BBCE937A534CCEB38643598122B6FEE978D0B0485F9C41B54DDD7D022595594E1A469170414C76A4D9A4D207E29CF43ECE46F218070CC6BECC4078ACAA135ACF422C856C0E68EA1BF5669944DDD7BCDE7B1F8E415D77AECB980613C2E4AC91FC167A2B244592486606FC29C8FD7F045B9A
310
EF7053A7E60B504B03041400060808001971623B0A5D6F70EA0000007C01000008000000636F72652E786D6C8D90416EC3201045AF82665BE10C364D9C081345517C825E0001715162B00C543D7E71E248EDAE1B66F4F96F66F4C5F17BBC932F3B47177C07AC4220D6EB609C1F3AC8E94A5B204729E610D22F1B10AF46DBC1
310
228314C31CF2B44A3AF8647D2AAA0FC6AEA28AD12620FA5E9A0EA2FEB4A3AA544EC5116FD5A4F44D0DB662AFAEC0393B439E4B9C29F3DCD5D919E4F974C6A6E7177ADAF62DE5356FE89EEF7ACA2FBB6DCB9123F25A6C16588AE4C6D77E3D5B95AC015923EE296314EB0FC60FD81EDED95B7911C566B1FF81F264FE0965E753
310
53AFE73EB1089295431E1F526C962C4A790455EA929BFC01504B03041400060808001971623B55019EA25F0000007C00000007000000636E782E786D6C4DCB3B0E80201045D1AD90E915ED2CF8AC45050C11660C8261F98AB1B07AC9C97D42D718D865D3E909258CFD00CCE24AC6E326A164D74DC0B4128928FF326038472B
310
A13128B1252AC747C6BAB984FC68F0B87FE8960A5C09FE86CFB69FBA01504B03041400060808001971623BC24926576F010000D40300000C0000006662782F636F72652E786D6CC5535B6EC32010BC0AE2B7B2C10ECD4B98288A9213F402C4262E8A0D16062BC7EFFA11A5A9D228FDAA3F309AD96566079B6F2E75853AE55A
310
6D4D86939862A44C6E0B6DCA0C077F8A96186D0477D6FA6F65181959AB0CF73016BC74363413945BE395F1801A5BA809946DAB3C4679059B0CB7F9A7AA652C83878AF61C37323FCB52C5490C34D409DE7A0706D028D2AF589C8E174E465CF0107431B1BA00357DD2CA61B1DBEEE8ECC0F6D1767E58462C65B368C5168788ED
310
17F325A38C529672D2370BEE757D75973B25BD2AB048295D454912D1F423616BBA5CBF276FB052CA495F7ED7149AE2C5A6A08D9FA593DDB1ADC522012303F1635A88C8A35676E087084EFA10E135247C1F340402217B79ACAE739C01EA54EEAD63C01436DCA84E5641812A8DE9F0A0DF379C8C9DA03A1C0E533FD4485FD678
310
7E225CB534250C213D6C8FC1F73EF9E8610AAD512EEAFC0519EB6A59BD36C69309FF44DDCC3FB494DBCABAFF7244A60B22D3E741FAFF517C01504B03041400060808001971623BB2E006497E0000009D0000000B0000006662782F636E782E786D6C4DCCDF0A83201C86E15B91DFB9EB9F63066AA4B6FB886521990EA76397
310
BF1A1DECE883878F97759FCDA1B7892F1B3C87EA520232FE1126EB170E39CD9802EA048B21A4BF1B203F6E86C3C120D812437E9E349979CC2EEDEAAC5F4F6CDBF2AE075563A97A8209D51596D79BC643DF90A6964AAA8A422158F12BED7B84C517504B03041400060808001971623BEB36D0D82A0100001202000031000000
310
6662782F39393046444543322D424341342D343844312D423537442D4541333433324243424331382F636F72652E786D6C8D515B6EC32010BC0AE22B55850D0E4EEC0813C54E7A825E80D8244589C1E251E5F885DA91DABFFCB06876667660D9FE31DEC1B7B44E19DD40926108A4EECDA0F4B581C15F5005C19E336B8CFF43
310
83408B513630C190B3AB35615AA0DE682FB58FA836835C40E19CF410F4F77869A0EBBFE42832117C64B85B3689FE26AE3223596C471E67CEDB1800CC43D209795DE38FE3A92B50DB1D28A2D591A0B6DC1ED1E9B0A6EBA2EDDA8E542C9F859C85A08645AE8618475D94B4AF9A2431675E8DCFF8BD95C2CB01F202E31A118270
310
F149E80E57BB92BCC713639627FA3F51988617454169BF2E96B8B3CC414E583E37381B4C38DF9F61E46332D683346FE564FF0639CE302E494D593E13E3F3A3E3862E8ECE1B1BBF77753B472E2967DB0DE52C4F1B8AE5777DB1A66DF21F504B03041400060808001971623B85CE68B04D01000033030000300000006662782F
310
39393046444543322D424341342D343844312D423537442D4541333433324243424331382F636E782E786D6CD593BB6E032110457F05D146FBC0D9588EC5622945BE20455A0CE3989885158F28FEFB0C3676DCB8489966B4BA7367EEE888E59BEFC9922F08D1783752D6F69480535E1BF731D29C76CD8A928DE0C1FB7463A3
310
C4C909465A642AF847F079AE92869DCC36A16A8D3B543140F439288828974962BD921617806B328A306D416BD0E46AC4AF1D043C05C5ED91A43D90D79777E2B79FA052E45DD922785732042FB526DD98285156C638D2A8F630C956E6E435C443AB65922D6B2F59776EFADD44CAC0253207434AF8484BA5A25ED42247DE6153
310
F09802D2ABA6749C810A39CFD62899107277329E3D8267E3D272A85E83E003BAD9F2711870D9A92778321354870A2013682A167DFFDC30D6F48B3736ACFBD5FA893D60ED7BDE15BBE05BEF6D1DC23510FC4C9477095CA282F1AEB4EFE1AB3EA24D40D63E1CFF001201D4D4339DEB8EFFCCA73BBD6FC415F02F103F504B0304
310
1400060808001971623BEC685A26640500003C100000340000006662782F39393046444543322D424341342D343844312D423537442D4541333433324243424331382F6F626A656374732E786D6CAD575B6FA33818FD2B887D0672EB6D4519B5493B8A663B339AA8A37DA8141970285BB0916D3AE9FCFA3D064380249DEC25
310
0FC118FBBB9EEFF8B3FF619B67D62B1532E5ECDA1EBB23DBA22CE271CA926BBB541BE7D2B63E04BEE05C7596D9162339BDB6F5B41DF889E06561A662BA2165A606B3F7B77F5A32A28CDA56941129AF6D193DD39CB8A4543CA6F2C58D89226EB2D9BA63B75ED8179B08523C0F84164450A66029E619A458B551E3FEEBC8F602
310
DFD3DF035FFF9B55D3E3ABBCCA9FBEFE94494558B4A76C20663A9E2DEE266757CED96C367566E793B1737B7FBB70C617D3D1FC7C3EBFBAB9BB8262A90424194B04DDD8C147C446A491EFD59F5A8B8DE1874C8A386334AAFC878795CD46624C0BCA62E431A512DA3A5E8FFAAF631D9BCEE7A97E372ABBD3A779D5DDD111D4D8
310
DE3CBB96F2F02FB8204F41859054A3AA8E8F71B4C6DF6817B590F3CC7C4BA5951345454A322B4B4341C49B1D60A95E12F83D311A9D42235C7B6007E39DBCAEAD288D5F63F790959B32CB3434EDA042F61AF8A74A5696A53FA938AC0D36215765CAD4A57148BD15D40EAE7CAF9A0C7CFD984ECCC73A90D6262309520E37EBAF
310
0347E7BAF6960B3BF8741F6E57BA1E0F2B2F042FA8501A3E805693B8E6A9A364D48E4FCA9CDE00677A31DF05E51B22FF19E5BB33057913E976B69D192D4A1026375CE4C88D3BAA7ED6A81938ED687F003E1BACDE5FD3CEFCABC5BED71ADB278C63F903B8746A2EFF7BFEFA31EB22B593BEC07F4581713135A15C452403F53C
310
A40C09D1A0B4328E2970F926DCDAC1124C0966C72E92056D40F606BEF78AEFF8AF6583AD2AF59D274342077C7B02F323965559C0B62360D9E3C94AB171EE58CCCFFE979AB959AC3EAD4AB121117D30C4B2A09B94A50A67E70EBC5D837A89E879F442DF7E7011C3D1FD24ACBA49C88D2A8968EB98EBC027CD61A15F769A7B0A
310
22EC4BB8E63CFF171A1E5219D12C238CF2B2D1D21E431AAB2DC9983E01555807743A19A058D0D7547712BD153DB370D647222D74C8DA43AFE569F7882F8FCBCF00A51DDCBEFD41DEBA8419EEE83EE21917EBF06D5D33A10DF0614F1FDDDFFBF03611F5B41420BEC272433926C4EB38DD6C4A09DE3D10C5EFCB7937532D91EC
310
0F9A026A34D63539033BA3F68830F06D74A2211004073B67EB14C738CAF2A0F2AEEEA10259C93D223F2CF3624D725E32754A98468D3F8DF5ADF06E17237F10153DDBC1AA7A3AB7A0EC98C64712AA8FA0033EF5D2333ABB3DBF9BDF8F9C4B0C9CD9FDECDCB99C4C2F9CC9D97C7671B6B8385FCCEF5A8B2A4B02BF39A1BA3588
310
68E244F44B919A303F2E77656B070F4449EF635D505E523F1F972EDA62DFC31E00BCDDB8CC8B8CE69429A2E1FBA007D93782AEA227A39E5FE624A12748F9F27135B0013327ECFBAA4B8DFE18EC35B3735D0B0785A8E7320F1949B3C146E3B85BB0C4B8DD84B27DD68CDEBCEA37134FF4A19267690CC289AD84F29C2AD0CE09
310
6C2F722A81986E571E9BDBC309BB5FEB7E509130A38D25CF042D7126816A904E19A9FEBCF51B5A38DD455DDB38ECDC17FC9942B42DA4FADA06BFA934A2D20D713CEAC6A7120E08A00B6B491050232CC9D059D79BDAF776978E0DE80727A0D1DF2E39A55B327EF5883727458153BB47AB956D4641F48F1C6FCCB188C2302C55
310
EBCB6EA275A65283CAAA9D327703B4102F46F516F5F5BE5B63B75AD38BC849F7A47741504B75141149752FD0F619936E165F3DB402D6F28B556465825C9E2EC91114602E75810345408591591005A8CE7F7FFA2A38EEA2B9759F02024F739EE79C99971B7397B556CFB899C64FA005AAAF1F72321A8F9FAAAEDF5C44D62191
310
D425B17CC1445370DA8301D600C8BDE3D4A4C0D339182C5F2E2C7360CC20B402ED5E535A5FC32D148FBE39EA52E99265F16EE3EF554B010681963DF81B504B03041400060800001971623B000000000000000000000000350000006662782F39393046444543322D424341342D343844312D423537442D4541333433324243
310
424331382F76657274696365732E62696E504B03041400060808001971623BF270F1330600000004000000360000006662782F39393046444543322D424341342D343844312D423537442D4541333433324243424331382F747269616E676C65732E62696E636660600000504B03041400060800001971623B000000000000
310
000000000000370000006662782F39393046444543322D424341342D343844312D423537442D4541333433324243424331382F617474726962757465732E62696E504B03041400060808001971623B08DA0BD19000000041010000360000006662782F39393046444543322D424341342D343844312D423537442D45413334
310
33324243424331382F6469726563746F72792E786D6C858F410AC3201045AF22B36F53E9A60B35CBEEBAE80D244E44489C6234F4F835464A48035D0DF398FF9F8AF63D0E6CC63039F212F8F9020C7D47C6792B21C5FE7403D62A1188E2E60C98D7234A5830286103A55745067B9D86B8A3CF9C7F90C11DE607FB144396D7B6
310
A82D282E9A152AD114D5EF2CB866EEE831B8EEA07A7BB5A8D7D61A2BAAEB7FD5F70921FF497D00504B03041400060808001971623B19F641E8FC000000A00100003B0000006662782F39393046444543322D424341342D343844312D423537442D4541333433324243424331382F7265736F75726365732F636F72652E786D
310
6C8D504B6E833010BD0A9A6D65B0C14D48641C456939412F609909B1126CE44FD5E3D7042AB5BB6E6646EFA3797AE2F4353D8A4FF4C138DB012B291468B51B8C1D3B48F14A5A284E5278E7E22F1914564DD8C1028314A37769DE20ED6C441B336ADD801BA842C008857EE4A383A06F38A952A59815E15ECE4ADFD588252B33
310
9D755284E87380627DB24C901E834B5E6310D5CA4A919219368D19F24F7335E8415ECE17DAF4FC8D9C777D4B78CD1B72E0FB9EF0F7FDAEE59453CA6B512D6629A2997E326A8F2AE200B2A6F4401823B4FE60FC48DBE32B7BC99352512DF23FA6340FFF34256363536F71575B00C97290272145B5F495D7B3CCBC976EE53750
310
4B010214000A00000800001971623B3DEE336E79000000790000001B00000000000000000000000000000000006175746F6465736B2D64657369676E2D7061636B6167652E786D6C504B010214001400060808001971623BD486FD9CA0000000F40000001300000000000000000000000000B20000005B436F6E74656E745F
310
54797065735D2E786D6C504B010214001400060808001971623B0A5D6F70EA0000007C010000080000000000000000000000000083010000636F72652E786D6C504B010214001400060808001971623B55019EA25F0000007C000000070000000000000000000000000093020000636E782E786D6C504B0102140014000608
310
08001971623BC24926576F010000D40300000C00000000000000000000000000170300006662782F636F72652E786D6C504B010214001400060808001971623BB2E006497E0000009D0000000B00000000000000000000000000B00400006662782F636E782E786D6C504B010214001400060808001971623BEB36D0D82A01
310
0000120200003100000000000000000000000000570500006662782F39393046444543322D424341342D343844312D423537442D4541333433324243424331382F636F72652E786D6C504B010214001400060808001971623B85CE68B04D010000330300003000000000000000000000000000D00600006662782F39393046
310
444543322D424341342D343844312D423537442D4541333433324243424331382F636E782E786D6C504B010214001400060808001971623BEC685A26640500003C10000034000000000000000000000000006B0800006662782F39393046444543322D424341342D343844312D423537442D4541333433324243424331382F
310
6F626A656374732E786D6C504B010214001400060800001971623B0000000000000000000000003500000000000000000000000000210E00006662782F39393046444543322D424341342D343844312D423537442D4541333433324243424331382F76657274696365732E62696E504B010214001400060808001971623BF2
310
70F13306000000040000003600000000000000000000000000740E00006662782F39393046444543322D424341342D343844312D423537442D4541333433324243424331382F747269616E676C65732E62696E504B010214001400060800001971623B0000000000000000000000003700000000000000000000000000CE0E
310
00006662782F39393046444543322D424341342D343844312D423537442D4541333433324243424331382F617474726962757465732E62696E504B010214001400060808001971623B08DA0BD190000000410100003600000000000000000000000000230F00006662782F39393046444543322D424341342D343844312D42
310
3537442D4541333433324243424331382F6469726563746F72792E786D6C504B010214001400060808001971623B19F641E8FC000000A00100003B00000000000000000000000000071000006662782F39393046444543322D424341342D343844312D423537442D4541333433324243424331382F7265736F75726365732F
310
636F72652E786D6C504B0506000000000E000E00800400005C1100000000
  0
XRECORD
  5
1292C
102
{ACAD_REACTORS
330
DE9
102
}
330
DE9
100
AcDbXrecord
280
     1
102
MATERIAL
148
0.0
149
0.0
149
0.0
 93
        0
 94
       63
282
     0
 72
     1
 77
     1
171
     1
175
     1
179
     1
273
     0
  0
XRECORD
  5
DEA
102
{ACAD_REACTORS
330
DE9
102
}
330
DE9
100
AcDbXrecord
280
     1
 70
     0
 90
2070111275
  1
A60E853B-8A63-4163-AAC4-49E6104741EF
310
504B03040A00000800001971623B3DEE336E79000000790000001B0000006175746F6465736B2D64657369676E2D7061636B6167652E786D6C3C3F786D6C2076657273696F6E3D22312E302220656E636F64696E673D227574662D3822203F3E3C666F726D6174733E3C666F726D61743E687474703A2F2F736368656D612E
310
6175746F6465736B2E636F6D2F64657369676E2D7061636B6167652F323030393C2F666F726D61743E3C2F666F726D6174733E504B03041400060808001971623BD486FD9CA0000000F4000000130000005B436F6E74656E745F54797065735D2E786D6C7D8EC10E82300C865F65E91D8A1E8C310C0EEA1BF002731658846E
310
D98AC1B77784ABF1D8FE5FBFBF75BBCE937A534CCEB38643598122B6FEE978D0B0485F9C41B54DDD7D022595594E1A469170414C76A4D9A4D207E29CF43ECE46F218070CC6BECC4078ACAA135ACF422C856C0E68EA1BF5669944DDD7BCDE7B1F8E415D77AECB980613C2E4AC91FC167A2B244592486606FC29C8FD7F045B9A
310
EF7053A7E60B504B03041400060808001971623BD7BF8A5CEB0000007C01000008000000636F72652E786D6C8D90D16E842010457F85CC6B8382AE75DD201BABF50BFA0304594B760523D0F4F30BBB6ED2BEF585995CEE99995C76FE5E6EE84B6D4E5BD302CD082065A49DB4995B08FE828F80CE9C6DD6FA5F3640462CAA85
310
240367F366C3BA4BD21AAF8C8FAAB193DA45E19CF280E42D362D38F9A9169189E0A3C35DB355C8AB9855469F5D8443D0137A2CD1539CA72F5A6DC0DF87A23F3635C5633D8EF8D0D505EE86BEC4AF7D5356D5D08D6F1565798239F37A79EE979B125E4DC00B421A4C2926C5073D9CC8F154D197F812C2F264FF038575FA2714
310
B4F165B19FFBC01CF074C8FD83B33C6511CB3DA858536EFC07504B03041400060808001971623B55019EA25F0000007C00000007000000636E782E786D6C4DCB3B0E80201045D1AD90E915ED2CF8AC45050C11660C8261F98AB1B07AC9C97D42D718D865D3E909258CFD00CCE24AC6E326A164D74DC0B4128928FF32603847
310
2BA13128B1252AC747C6BAB984FC68F0B87FE8960A5C09FE86CFB69FBA01504B03041400060808001971623B8233ADD771010000D40300000C0000006662782F636F72652E786D6CC5535B6E833010BC8AE5DF0A6C93D03C641CA54939412FE0804351C046C646397E974794A64AA3F4AB7C186B66D7333B06BE39D715EA94
310
6D4BA313CC428A91D299C94B5D24D8BB63B0C46823B835C67D2BC348CB5A25B887B1E08535BE99A0CC68A7B403549B5C4DA06C5BE530CA2AD824B8CD3E552D43E91D54B4A7B091D949162A6421D0502778EB2C1840A348BF62713C9C391971C1BD2FF3892D73502B8FA5B258BCEFA3DD72B56041BA48D360BE5D44C176BF9B
310
05AFBBD52C8EF7DBF42D669CF4CD82BBB2BEB8CBAC924EE5584494AE02C6021A7DB0F99A2ED7317B8195524EFAF29B26DFE44F36F952BB5934D91DDB5A2C7A2303F1635A88C8A15676E087084EFA10E135247C1B340402213B79A82E739C00EA54E68C9D03931B7FA53A597905AA34A4C3837EDF70327682EA70384C7D5723
310
7A5AE3F18970D55217308474B03D78D7FBE4A38729B446D9A07367A48DAD65F5DC180F26FC1375357FD752662A63FFCB11992E884C9F07E9FF47F105504B03041400060808001971623B42502D3E7E0000009D0000000B0000006662782F636E782E786D6C4DCCD10A83201886E15B91FFDC3529CB811A2A7A1FB12C62A6C3
310
D9D8E5AF46073BFAE0E1E3E5FD670DE8EDF36B495100B95C01F9784FE31267015B993003D44B9E532A7F37407158BD808341F239A7ED79D2E8A7610B65D7B0C4C7894CD5CA994EE1A6B6143796B6F8C6ACC6AE3354B79A18E22C549257BFD2BE47587E01504B03041400060808001971623BD936219E2A0100001202000031
310
0000006662782F38413341464337412D343345352D344535362D393845422D4637433542364231433146452F636F72652E786D6C8D515B6EC32010BC0AE22B55850DF1234E848992C839412F406D92A2C460F1A872FC2EB523B57FF961D1ECCCECC0F2FD63BCA36FE5BCB6A6C52CA31829D3DB419B6B8B63B89006A3BDE0CE
310
DAF087869191A36A7182B1E05767E3B440BD35419900A8B1835A40E9BD0A18F577B8B4D8F75F6A94998C0118FE964DB2BFC9ABCA58066DE009EE838300681E924E2C9A4371389F360752165D45CAAEAAC9B6E98EE4BC3955C7FAC84EECDCF17C160A1EA31E16B91E208EBE68E55E354962C1831E9FF17BA7645003166B4AB7
310
843142D71FACDCD16657B1773829E579A2FF13C569785114B509C57A893BCB3C168CE77343F0C1C6CFFB338C7A4CD60594E6ADBCEADFB0A019A5152B403013E1F9E058978BA30FD6C1F7AE6E9FC065D56C5B9782E76943507ED707356D53FC00504B03041400060808001971623B85CE68B04D010000330300003000000066
310
62782F38413341464337412D343345352D344535362D393845422D4637433542364231433146452F636E782E786D6CD593BB6E032110457F05D146FBC0D9588EC5622945BE20455A0CE3989885158F28FEFB0C3676DCB8489966B4BA7367EEE888E59BEFC9922F08D1783752D6F69480535E1BF731D29C76CD8A928DE0C1FB
310
7463A3C4C909465A642AF847F079AE92869DCC36A16A8D3B543140F439288828974962BD921617806B328A306D416BD0E46AC4AF1D043C05C5ED91A43D90D79777E2B79FA052E45DD922785732042FB526DD98285156C638D2A8F630C956E6E435C443AB65922D6B2F59776EFADD44CAC0253207434AF8484BA5A25ED42247
310
DE6153F09802D2ABA6749C810A39CFD62899107277329E3D8267E3D272A85E83E003BAD9F2711870D9A92778321354870A2013682A167DFFDC30D6F48B3736ACFBD5FA893D60ED7BDE15BBE05BEF6D1DC23510FC4C9477095CA282F1AEB4EFE1AB3EA24D40D63E1CFF001201D4D4339DEB8EFFCCA73BBD6FC415F02F103F50
310
4B03041400060808001971623BCD4B1D9C630500003B100000340000006662782F38413341464337412D343345352D344535362D393845422D4637433542364231433146452F6F626A656374732E786D6CAD575B6FA33814FE2B887D0E8426EDB42BCA284DDA2A1A75A69AA8A37DA8141970285B83916D3AE9FEFAFD0C8600
310
493AD94B1E0236C7E7FA9D8BFDCFDB8C596F54C894E7D7B6E78C6D8BE6118FD33CB9B64BB5195DDAD6E7C0179CAB0E996DE524A3D7B6DEB6033F11BC2CCC564C37A4646AB07B77F38725239A53DB8A1891F2DA96D10BCD88434AC5632A5F9D9828E2249BADE33935619F6D2248F132605A104173054DB19F838B552BE5F597
310
63DB0D7C577F0F7CFD6FA826C7A9DCCA9EBEFC34978AE4D19EB0019B89375DDC9E9D5F8DCEA7D3C9687A71E68D6EEE6E1623EFD3643CBF98CFAF66B757102C950027A389A01B3BB8876F441AF96EFDA9D5D8287E48A588E7398D2AFB6161A5B3E118D382E631E2985209691DABC7FDA5A77DD3F93CD16B23B2BB7D9A55DD13
310
1D468DEECDB3AB290FFF8409F21454084935AA6AFF18436BFC8D775E0B3967E65B2AAD8C282A52C22C96868288773B00A92609FC1E1B8D4EA111AE2DB0036FC7AFAB2B52E3D7D83DA4E5A6644C43D30E2A64AF817FAA64A559FA171587A54127C4AA4C7375690C52EF05B5832BDFAD36035F3F2667E663ED486BC3488290C3
310
CCFAEBC0D0B9CEBDE5C20EBEDC85DB95CEC7C3C20BC10B2A94860FA0D504AE796A2F19B1DE4991D307604CCFE73BA77C87E7BF227D77AA206E22DD4EB75323450992CB0D171962E38CAB9F356E5E46EDDBFE0BEAD9807A9FA6DDF957C4BEDB2ADB2F18C7E20770E9D05CFEF7F8F57DD6456A277C81FF8604E362625CB98A08
310
43E9794873044483D2621C5BA8E59B706B074B544A54769C222C681DB2F7E2BB6FF88EFF9A37AA5525BEF3CC11D041BD3DA1F2C397555A40B72360D9AB93956063DC319F9FFF2F39335BACBEAC4AB121117D3085654137699E2AF4CE1D78BB0AF502D1B3E895BEFFE42286A1FB4158758390195112DED63ED78E4F9A66A117
310
3BC93D0111CE255CD73CFF17121E521951C6484E79D94869DB90C66A5B64CC9C802CAC1D3A391BA058D0B7544F123D8A9E5AE8F591480BEDB2B6E9B575DA3962CBD3F22B40097AC643C27644E1AEDA479C71B10EDFD77521B4813D1CE983FB471FDDC6A1AEE602C057506E2A8EF1F03A4E379B52A2EC1E70E28FE5BC1BA8B6
310
8EECBF34F9D348AC53728AE28CD423C2A0B79189794010F4759EAF53747164E541E15DD94301B2E27B847F5866C59A64BCCCD5296E1A37F634DAB7CCBB438CFC4954F46207ABEA39BA41C58E69BC0B550F04BA031DB0A9179ED9C5F8F6F27C7233BA9C5D6092F2F0379BCDA7A3E9D5ED85379E7E9A7AB777AD46952681DF34
310
A86E0AC29B68887E2952E3E6A7E52E6BEDE08128E9DED7F9E426F5F369E9602AF65D9C01BEDB83CBAC6034A3B9221ABD0FFA857D27182A7A3CEAFD6546127A02976FF7AB810ED839E1DCA3CE34FA7370D6ECCE752E1C64A25ECA2CCC49CA06078DE14E9127C6ECC695EDB32EE8CD52AF8C3F31864ACED218F526B612CA33AA
310
50754E28F622A31288E90EE5B1B93C9C70FAAD1E071509196D34792198889904AA01B73252FD7DEB374C707A88BAB6D1EB9C57FC9944B42D84FADA4679536944A513A23BEAB9A7620E0860086B6B20A046F28461B0AE0FB5EBF694F60DCA0F1AA091DF929C322C19BB7A7537234581A6DDABAA956E4640F48F0C6FD4B188C2
310
6B58AAD696DD466B4C250699551B65AE0698205E8DE82DF2EB63B33CA7A2E979E4A46BD28720A8B98E141149752DD0FA1995668B47179380B5FC6615AC4C10CBD3398D0405984B9DE04011506178164401AAF3DF9F1F05C75534B3EE5240E079CEB38CE766313357596BF5828B69FC8CB240F5ED439E8D3DEFB91AFACD3D64
310
1D12491D12CB576C3409A72D18600D80DCEBA62604AE8EC1807CB9B04CC398826905DABD99B4BE855B481E7D71D4A9D22D96C58773BF5B91020C02137BF037504B03041400060800001971623B000000000000000000000000350000006662782F38413341464337412D343345352D344535362D393845422D463743354236
310
4231433146452F76657274696365732E62696E504B03041400060808001971623BF270F1330600000004000000360000006662782F38413341464337412D343345352D344535362D393845422D4637433542364231433146452F747269616E676C65732E62696E636660600000504B03041400060800001971623B00000000
310
0000000000000000370000006662782F38413341464337412D343345352D344535362D393845422D4637433542364231433146452F617474726962757465732E62696E504B03041400060808001971623B08DA0BD19000000041010000360000006662782F38413341464337412D343345352D344535362D393845422D4637
310
433542364231433146452F6469726563746F72792E786D6C858F410AC3201045AF22B36F53E9A60B35CBEEBAE80D244E44489C6234F4F835464A48035D0DF398FF9F8AF63D0E6CC63039F212F8F9020C7D47C6792B21C5FE7403D62A1188E2E60C98D7234A5830286103A55745067B9D86B8A3CF9C7F90C11DE607FB144396
310
D7B6A82D282E9A152AD114D5EF2CB866EEE831B8EEA07A7BB5A8D7D61A2BAAEB7FD5F70921FF497D00504B03041400060808001971623BC414A4C4FD000000A00100003B0000006662782F38413341464337412D343345352D344535362D393845422D4637433542364231433146452F7265736F75726365732F636F72652E
310
786D6C8D50596EC32010BD0A9ADF0A1B9CB8598489D2B83E412F80F02441892162A97AFC42EC4AED5F7F66466FD13C3D71F89AEEE4137D30CE76C02B0604AD76A3B1970E523CD32D908314DEB9F84B06C4AA093B28304871F12E3D16483B1BD1C68C5A37E202AA103002D1F77C7410F4152755A914B322DCAA87D23775C18A
310
5799CE3A2942F43900999F9409D26370C96B0CA29E59295232E3A23163FE69CE063DC8F7BE396D771B4687CD30D0F571D3D0637F5AD1D7D36ED5B6FD71786BB9A88B598A68A69F8CDAA38A38826C18DB51CE296B3EF87ACFB6FB96BFE4C998A88BFC8F293DC67F9A92B171D52C71675B0059823C0929EAD2575ECF32F32EDD
310
CA6F504B010214000A00000800001971623B3DEE336E79000000790000001B00000000000000000000000000000000006175746F6465736B2D64657369676E2D7061636B6167652E786D6C504B010214001400060808001971623BD486FD9CA0000000F40000001300000000000000000000000000B20000005B436F6E7465
310
6E745F54797065735D2E786D6C504B010214001400060808001971623BD7BF8A5CEB0000007C010000080000000000000000000000000083010000636F72652E786D6C504B010214001400060808001971623B55019EA25F0000007C000000070000000000000000000000000094020000636E782E786D6C504B0102140014
310
00060808001971623B8233ADD771010000D40300000C00000000000000000000000000180300006662782F636F72652E786D6C504B010214001400060808001971623B42502D3E7E0000009D0000000B00000000000000000000000000B30400006662782F636E782E786D6C504B010214001400060808001971623BD93621
310
9E2A0100001202000031000000000000000000000000005A0500006662782F38413341464337412D343345352D344535362D393845422D4637433542364231433146452F636F72652E786D6C504B010214001400060808001971623B85CE68B04D010000330300003000000000000000000000000000D30600006662782F38
310
413341464337412D343345352D344535362D393845422D4637433542364231433146452F636E782E786D6C504B010214001400060808001971623BCD4B1D9C630500003B10000034000000000000000000000000006E0800006662782F38413341464337412D343345352D344535362D393845422D46374335423642314331
310
46452F6F626A656374732E786D6C504B010214001400060800001971623B0000000000000000000000003500000000000000000000000000230E00006662782F38413341464337412D343345352D344535362D393845422D4637433542364231433146452F76657274696365732E62696E504B010214001400060808001971
310
623BF270F13306000000040000003600000000000000000000000000760E00006662782F38413341464337412D343345352D344535362D393845422D4637433542364231433146452F747269616E676C65732E62696E504B010214001400060800001971623B00000000000000000000000037000000000000000000000000
310
00D00E00006662782F38413341464337412D343345352D344535362D393845422D4637433542364231433146452F617474726962757465732E62696E504B010214001400060808001971623B08DA0BD190000000410100003600000000000000000000000000250F00006662782F38413341464337412D343345352D344535
310
362D393845422D4637433542364231433146452F6469726563746F72792E786D6C504B010214001400060808001971623BC414A4C4FD000000A00100003B00000000000000000000000000091000006662782F38413341464337412D343345352D344535362D393845422D4637433542364231433146452F7265736F757263
310
65732F636F72652E786D6C504B0506000000000E000E00800400005F1100000000
  0
XRECORD
  5
1296E
102
{ACAD_REACTORS
330
1296D
102
}
330
1296D
100
AcDbXrecord
280
     1
102
SHADEPLOT
 70
     0
102
SHADEPLOTRESLEVEL
 70
     2
102
SHADEPLOTCUSTOMDPI
 70
   300
  0
XRECORD
  5
12963
102
{ACAD_REACTORS
330
12962
102
}
330
12962
100
AcDbXrecord
280
     1
102
SHADEPLOT
 70
     0
102
SHADEPLOTRESLEVEL
 70
     2
102
SHADEPLOTCUSTOMDPI
 70
   300
  0
XRECORD
  5
12927
102
{ACAD_REACTORS
330
12926
102
}
330
12926
100
AcDbXrecord
280
     1
102
SHADEPLOT
 70
     0
102
SHADEPLOTRESLEVEL
 70
     2
102
SHADEPLOTCUSTOMDPI
 70
   300
  0
XRECORD
  5
12929
102
{ACAD_REACTORS
330
12928
102
}
330
12928
100
AcDbXrecord
280
     1
102
SHADEPLOT
 70
     0
102
SHADEPLOTRESLEVEL
 70
     2
102
SHADEPLOTCUSTOMDPI
 70
   300
  0
XRECORD
  5
1295F
102
{ACAD_REACTORS
330
1295E
102
}
330
1295E
100
AcDbXrecord
280
     1
102
DISPLAYNAME
  1
Imperial24
102
FLAGS
 90
        0
  0
CELLSTYLEMAP
  5
12895
102
{ACAD_REACTORS
330
12894
102
}
330
12894
100
AcDbCellStyleMap
 90
        3
300
CELLSTYLE
  1
TABLEFORMAT_BEGIN
 90
        5
170
     1
 91
        0
 92
    32768
 62
   257
 93
        1
300
CONTENTFORMAT
  1
CONTENTFORMAT_BEGIN
 90
        0
 91
        0
 92
      512
 93
        0
300

 40
0.0
140
1.0
 94
        5
 62
     0
340
11
144
0.25
309
CONTENTFORMAT_END
171
     0
 94
        6
 95
        1
302
GRIDFORMAT
  1
GRIDFORMAT_BEGIN
 90
        0
 91
        1
 62
     0
 92
       -2
340
0
 93
        0
 40
0.045
309
GRIDFORMAT_END
 95
        2
302
GRIDFORMAT
  1
GRIDFORMAT_BEGIN
 90
        0
 91
        1
 62
     0
 92
       -2
340
0
 93
        0
 40
0.045
309
GRIDFORMAT_END
 95
        4
302
GRIDFORMAT
  1
GRIDFORMAT_BEGIN
 90
        0
 91
        1
 62
     0
 92
       -2
340
0
 93
        0
 40
0.045
309
GRIDFORMAT_END
 95
        8
302
GRIDFORMAT
  1
GRIDFORMAT_BEGIN
 90
        0
 91
        1
 62
     0
 92
       -2
340
0
 93
        0
 40
0.045
309
GRIDFORMAT_END
 95
       16
302
GRIDFORMAT
  1
GRIDFORMAT_BEGIN
 90
        0
 91
        1
 62
     0
 92
       -2
340
0
 93
        0
 40
0.045
309
GRIDFORMAT_END
 95
       32
302
GRIDFORMAT
  1
GRIDFORMAT_BEGIN
 90
        0
 91
        1
 62
     0
 92
       -2
340
0
 93
        0
 40
0.045
309
GRIDFORMAT_END
309
TABLEFORMAT_END
  1
CELLSTYLE_BEGIN
 90
        1
 91
        1
300
_TITLE
309
CELLSTYLE_END
300
CELLSTYLE
  1
TABLEFORMAT_BEGIN
 90
        5
170
     1
 91
        0
 92
        0
 62
   257
 93
        1
300
CONTENTFORMAT
  1
CONTENTFORMAT_BEGIN
 90
        0
 91
        0
 92
      512
 93
        0
300

 40
0.0
140
1.0
 94
        5
 62
     0
340
11
144
0.18
309
CONTENTFORMAT_END
171
     0
 94
        6
 95
        1
302
GRIDFORMAT
  1
GRIDFORMAT_BEGIN
 90
        0
 91
        1
 62
     0
 92
       -2
340
0
 93
        0
 40
0.045
309
GRIDFORMAT_END
 95
        2
302
GRIDFORMAT
  1
GRIDFORMAT_BEGIN
 90
        0
 91
        1
 62
     0
 92
       -2
340
0
 93
        0
 40
0.045
309
GRIDFORMAT_END
 95
        4
302
GRIDFORMAT
  1
GRIDFORMAT_BEGIN
 90
        0
 91
        1
 62
     0
 92
       -2
340
0
 93
        0
 40
0.045
309
GRIDFORMAT_END
 95
        8
302
GRIDFORMAT
  1
GRIDFORMAT_BEGIN
 90
        0
 91
        1
 62
     0
 92
       -2
340
0
 93
        0
 40
0.045
309
GRIDFORMAT_END
 95
       16
302
GRIDFORMAT
  1
GRIDFORMAT_BEGIN
 90
        0
 91
        1
 62
     0
 92
       -2
340
0
 93
        0
 40
0.045
309
GRIDFORMAT_END
 95
       32
302
GRIDFORMAT
  1
GRIDFORMAT_BEGIN
 90
        0
 91
        1
 62
     0
 92
       -2
340
0
 93
        0
 40
0.045
309
GRIDFORMAT_END
309
TABLEFORMAT_END
  1
CELLSTYLE_BEGIN
 90
        2
 91
        1
300
_HEADER
309
CELLSTYLE_END
300
CELLSTYLE
  1
TABLEFORMAT_BEGIN
 90
        5
170
     1
 91
        0
 92
        0
 62
   257
 93
        1
300
CONTENTFORMAT
  1
CONTENTFORMAT_BEGIN
 90
        0
 91
        0
 92
      512
 93
        0
300

 40
0.0
140
1.0
 94
        2
 62
     0
340
11
144
0.18
309
CONTENTFORMAT_END
171
     0
 94
        6
 95
        1
302
GRIDFORMAT
  1
GRIDFORMAT_BEGIN
 90
        0
 91
        1
 62
     0
 92
       -2
340
0
 93
        0
 40
0.045
309
GRIDFORMAT_END
 95
        2
302
GRIDFORMAT
  1
GRIDFORMAT_BEGIN
 90
        0
 91
        1
 62
     0
 92
       -2
340
0
 93
        0
 40
0.045
309
GRIDFORMAT_END
 95
        4
302
GRIDFORMAT
  1
GRIDFORMAT_BEGIN
 90
        0
 91
        1
 62
     0
 92
       -2
340
0
 93
        0
 40
0.045
309
GRIDFORMAT_END
 95
        8
302
GRIDFORMAT
  1
GRIDFORMAT_BEGIN
 90
        0
 91
        1
 62
     0
 92
       -2
340
0
 93
        0
 40
0.045
309
GRIDFORMAT_END
 95
       16
302
GRIDFORMAT
  1
GRIDFORMAT_BEGIN
 90
        0
 91
        1
 62
     0
 92
       -2
340
0
 93
        0
 40
0.045
309
GRIDFORMAT_END
 95
       32
302
GRIDFORMAT
  1
GRIDFORMAT_BEGIN
 90
        0
 91
        1
 62
     0
 92
       -2
340
0
 93
        0
 40
0.045
309
GRIDFORMAT_END
309
TABLEFORMAT_END
  1
CELLSTYLE_BEGIN
 90
        3
 91
        2
300
_DATA
309
CELLSTYLE_END
  0
XRECORD
  5
12925
102
{ACAD_REACTORS
330
12894
102
}
330
12894
100
AcDbXrecord
280
     1
102
ACAD_ROUNDTRIP_PRE2007_TABLESTYLE
 90
      512
 91
        0
  1

 92
      512
 93
        0
  2

 94
      512
 95
        0
  3

  0
XRECORD
  5
12938
102
{ACAD_REACTORS
330
12937
102
}
330
12937
100
AcDbXrecord
280
     1
102
RTVSPost2010Prop28
280
     1
102
RTVSPost2010PropOp28
 70
     1
102
RTVSPost2010Prop29
280
     1
102
RTVSPost2010PropOp29
 70
     1
102
RTVSPost2010Prop30
280
     0
102
RTVSPost2010PropOp30
 70
     1
102
RTVSPost2010Prop31
280
     0
102
RTVSPost2010PropOp31
 70
     1
102
RTVSPost2010Prop32
280
     0
102
RTVSPost2010PropOp32
 70
     1
102
RTVSPost2010Prop33
280
     0
102
RTVSPost2010PropOp33
 70
     1
102
RTVSPost2010Prop34
280
     0
102
RTVSPost2010PropOp34
 70
     1
102
RTVSPost2010Prop35
280
     0
102
RTVSPost2010PropOp35
 70
     1
102
RTVSPost2010Prop36
280
     0
102
RTVSPost2010PropOp36
 70
     1
102
RTVSPost2010Prop37
 90
       50
102
RTVSPost2010PropOp37
 70
     1
102
RTVSPost2010Prop38
140
0.0
102
RTVSPost2010PropOp38
 70
     1
102
RTVSPost2010Prop39
140
1.0
102
RTVSPost2010PropOp39
 70
     1
102
RTVSPost2010Prop40
 90
        0
102
RTVSPost2010PropOp40
 70
     1
102
RTVSPost2010Prop41ColorIndex
 90
       18
102
RTVSPost2010Prop41ColorRGB
 90
        0
102
RTVSPost2010PropOp41
 70
     1
102
RTVSPost2010Prop42
 90
       50
102
RTVSPost2010PropOp42
 70
     1
102
RTVSPost2010Prop43
 90
        3
102
RTVSPost2010PropOp43
 70
     1
102
RTVSPost2010Prop44ColorIndex
 90
        5
102
RTVSPost2010Prop44ColorRGB
 90
      255
102
RTVSPost2010PropOp44
 70
     1
102
RTVSPost2010Prop45
280
     0
102
RTVSPost2010PropOp45
 70
     1
102
RTVSPost2010Prop46
 90
       50
102
RTVSPost2010PropOp46
 70
     1
102
RTVSPost2010Prop47
 90
       50
102
RTVSPost2010PropOp47
 70
     1
102
RTVSPost2010Prop48
 90
       50
102
RTVSPost2010PropOp48
 70
     1
102
RTVSPost2010Prop49
280
     0
102
RTVSPost2010PropOp49
 70
     1
102
RTVSPost2010Prop50
 90
       50
102
RTVSPost2010PropOp50
 70
     1
102
RTVSPost2010Prop51ColorIndex
 90
      256
102
RTVSPost2010Prop51ColorRGB
 90
-16777216
102
RTVSPost2010PropOp51
 70
     0
102
RTVSPost2010Prop52
140
1.0
102
RTVSPost2010PropOp52
 70
     0
102
RTVSPost2010Prop53
 90
        2
102
RTVSPost2010PropOp53
 70
     1
102
RTVSPost2010Prop54
  1
strokes_ogs.tif
102
RTVSPost2010PropOp54
 70
     1
102
RTVSPost2010Prop55
280
     0
102
RTVSPost2010PropOp55
 70
     1
102
RTVSPost2010Prop56
140
1.0
102
RTVSPost2010PropOp56
 70
     1
102
RTVSPost2010Prop57
140
1.0
102
RTVSPost2010PropOp57
 70
     1
102
RTVSPropertyOp0
 70
     1
102
RTVSPropertyOp1
 70
     1
102
RTVSPropertyOp2
 70
     1
102
RTVSPropertyOp3
 70
     1
102
RTVSPropertyOp4
 70
     1
102
RTVSPropertyOp5
 70
     1
102
RTVSPropertyOp6
 70
     1
102
RTVSPropertyOp7
 70
     1
102
RTVSPropertyOp8
 70
     1
102
RTVSPropertyOp9
 70
     1
102
RTVSPropertyOp10
 70
     1
102
RTVSPropertyOp11
 70
     1
102
RTVSPropertyOp12
 70
     1
102
RTVSPropertyOp13
 70
     1
102
RTVSPropertyOp14
 70
     1
102
RTVSPropertyOp15
 70
     1
102
RTVSPropertyOp16
 70
     1
102
RTVSPropertyOp17
 70
     1
102
RTVSPropertyOp18
 70
     1
102
RTVSPropertyOp19
 70
     1
102
RTVSPropertyOp20
 70
     1
102
RTVSPropertyOp21
 70
     1
102
RTVSPropertyOp22
 70
     1
102
RTVSPropertyOp23
 70
     1
102
RTVSPropertyOp24
 70
     1
102
RTVSPropertyOp25
 70
     1
102
RTVSPropertyOp26
 70
     1
102
RTVSPropertyOp27
 70
     1
102
RTVSPropertyOp28
 70
     1
102
RTVSPropertyOp29
 70
     1
102
RTVSPropertyOp30
 70
     1
102
RTVSPropertyOp31
 70
     1
102
RTVSPropertyOp32
 70
     1
102
RTVSPropertyOp33
 70
     1
102
RTVSPropertyOp34
 70
     1
102
RTVSPropertyOp35
 70
     1
102
RTVSPropertyOp36
 70
     1
102
RTVSPropertyOp37
 70
     1
102
RTVSPropertyOp38
 70
     1
102
RTVSPropertyOp39
 70
     1
102
RTVSPropertyOp40
 70
     1
102
RTVSPropertyOp41
 70
     1
102
RTVSPropertyOp42
 70
     1
102
RTVSPropertyOp43
 70
     1
102
RTVSPropertyOp44
 70
     1
102
RTVSPropertyOp45
 70
     1
102
RTVSPropertyOp46
 70
     1
102
RTVSPropertyOp47
 70
     1
102
RTVSPropertyOp48
 70
     1
102
RTVSPropertyOp49
 70
     1
102
RTVSPropertyOp50
 70
     1
102
RTVSPropertyOp51
 70
     0
102
RTVSPropertyOp52
 70
     0
102
RTVSPropertyOp53
 70
     1
102
RTVSPropertyOp54
 70
     1
102
RTVSPropertyOp55
 70
     1
102
RTVSPropertyOp56
 70
     1
102
RTVSPropertyOp57
 70
     1
102
RTVSPropertyOp58
 70
     1
102
RTVSPropertyOp59
 70
     1
102
RTVSPropertyOp60
 70
     1
102
RTVSPropertyOp61
 70
     1
102
RTVSPropertyOp62
 70
     1
  0
XRECORD
  5
12968
102
{ACAD_REACTORS
330
12967
102
}
330
12967
100
AcDbXrecord
280
     1
102
RTVSPost2010Prop28
280
     0
102
RTVSPost2010PropOp28
 70
     1
102
RTVSPost2010Prop29
280
     1
102
RTVSPost2010PropOp29
 70
     1
102
RTVSPost2010Prop30
280
     1
102
RTVSPost2010PropOp30
 70
     1
102
RTVSPost2010Prop31
280
     0
102
RTVSPost2010PropOp31
 70
     1
102
RTVSPost2010Prop32
280
     0
102
RTVSPost2010PropOp32
 70
     1
102
RTVSPost2010Prop33
280
     0
102
RTVSPost2010PropOp33
 70
     1
102
RTVSPost2010Prop34
280
     0
102
RTVSPost2010PropOp34
 70
     1
102
RTVSPost2010Prop35
280
     0
102
RTVSPost2010PropOp35
 70
     1
102
RTVSPost2010Prop36
280
     0
102
RTVSPost2010PropOp36
 70
     1
102
RTVSPost2010Prop37
 90
       50
102
RTVSPost2010PropOp37
 70
     1
102
RTVSPost2010Prop38
140
0.0
102
RTVSPost2010PropOp38
 70
     1
102
RTVSPost2010Prop39
140
1.0
102
RTVSPost2010PropOp39
 70
     1
102
RTVSPost2010Prop40
 90
        0
102
RTVSPost2010PropOp40
 70
     1
102
RTVSPost2010Prop41ColorIndex
 90
       18
102
RTVSPost2010Prop41ColorRGB
 90
        0
102
RTVSPost2010PropOp41
 70
     1
102
RTVSPost2010Prop42
 90
       50
102
RTVSPost2010PropOp42
 70
     1
102
RTVSPost2010Prop43
 90
        3
102
RTVSPost2010PropOp43
 70
     1
102
RTVSPost2010Prop44ColorIndex
 90
        5
102
RTVSPost2010Prop44ColorRGB
 90
      255
102
RTVSPost2010PropOp44
 70
     1
102
RTVSPost2010Prop45
280
     0
102
RTVSPost2010PropOp45
 70
     1
102
RTVSPost2010Prop46
 90
       50
102
RTVSPost2010PropOp46
 70
     1
102
RTVSPost2010Prop47
 90
       50
102
RTVSPost2010PropOp47
 70
     1
102
RTVSPost2010Prop48
 90
       50
102
RTVSPost2010PropOp48
 70
     1
102
RTVSPost2010Prop49
280
     0
102
RTVSPost2010PropOp49
 70
     1
102
RTVSPost2010Prop50
 90
       50
102
RTVSPost2010PropOp50
 70
     1
102
RTVSPost2010Prop51ColorIndex
 90
      256
102
RTVSPost2010Prop51ColorRGB
 90
-16777216
102
RTVSPost2010PropOp51
 70
     0
102
RTVSPost2010Prop52
140
1.0
102
RTVSPost2010PropOp52
 70
     0
102
RTVSPost2010Prop53
 90
        2
102
RTVSPost2010PropOp53
 70
     1
102
RTVSPost2010Prop54
  1
strokes_ogs.tif
102
RTVSPost2010PropOp54
 70
     1
102
RTVSPost2010Prop55
280
     0
102
RTVSPost2010PropOp55
 70
     1
102
RTVSPost2010Prop56
140
1.0
102
RTVSPost2010PropOp56
 70
     1
102
RTVSPost2010Prop57
140
1.0
102
RTVSPost2010PropOp57
 70
     1
102
RTVSPropertyOp0
 70
     1
102
RTVSPropertyOp1
 70
     1
102
RTVSPropertyOp2
 70
     1
102
RTVSPropertyOp3
 70
     1
102
RTVSPropertyOp4
 70
     1
102
RTVSPropertyOp5
 70
     1
102
RTVSPropertyOp6
 70
     1
102
RTVSPropertyOp7
 70
     1
102
RTVSPropertyOp8
 70
     1
102
RTVSPropertyOp9
 70
     1
102
RTVSPropertyOp10
 70
     1
102
RTVSPropertyOp11
 70
     1
102
RTVSPropertyOp12
 70
     1
102
RTVSPropertyOp13
 70
     1
102
RTVSPropertyOp14
 70
     1
102
RTVSPropertyOp15
 70
     1
102
RTVSPropertyOp16
 70
     1
102
RTVSPropertyOp17
 70
     1
102
RTVSPropertyOp18
 70
     1
102
RTVSPropertyOp19
 70
     1
102
RTVSPropertyOp20
 70
     1
102
RTVSPropertyOp21
 70
     1
102
RTVSPropertyOp22
 70
     1
102
RTVSPropertyOp23
 70
     1
102
RTVSPropertyOp24
 70
     1
102
RTVSPropertyOp25
 70
     1
102
RTVSPropertyOp26
 70
     1
102
RTVSPropertyOp27
 70
     1
102
RTVSPropertyOp28
 70
     1
102
RTVSPropertyOp29
 70
     1
102
RTVSPropertyOp30
 70
     1
102
RTVSPropertyOp31
 70
     1
102
RTVSPropertyOp32
 70
     1
102
RTVSPropertyOp33
 70
     1
102
RTVSPropertyOp34
 70
     1
102
RTVSPropertyOp35
 70
     1
102
RTVSPropertyOp36
 70
     1
102
RTVSPropertyOp37
 70
     1
102
RTVSPropertyOp38
 70
     1
102
RTVSPropertyOp39
 70
     1
102
RTVSPropertyOp40
 70
     1
102
RTVSPropertyOp41
 70
     1
102
RTVSPropertyOp42
 70
     1
102
RTVSPropertyOp43
 70
     1
102
RTVSPropertyOp44
 70
     1
102
RTVSPropertyOp45
 70
     1
102
RTVSPropertyOp46
 70
     1
102
RTVSPropertyOp47
 70
     1
102
RTVSPropertyOp48
 70
     1
102
RTVSPropertyOp49
 70
     1
102
RTVSPropertyOp50
 70
     1
102
RTVSPropertyOp51
 70
     0
102
RTVSPropertyOp52
 70
     0
102
RTVSPropertyOp53
 70
     1
102
RTVSPropertyOp54
 70
     1
102
RTVSPropertyOp55
 70
     1
102
RTVSPropertyOp56
 70
     1
102
RTVSPropertyOp57
 70
     1
102
RTVSPropertyOp58
 70
     1
102
RTVSPropertyOp59
 70
     1
102
RTVSPropertyOp60
 70
     1
102
RTVSPropertyOp61
 70
     1
102
RTVSPropertyOp62
 70
     1
  0
XRECORD
  5
12936
102
{ACAD_REACTORS
330
12935
102
}
330
12935
100
AcDbXrecord
280
     1
102
RTVSPost2010Prop28
280
     0
102
RTVSPost2010PropOp28
 70
     1
102
RTVSPost2010Prop29
280
     1
102
RTVSPost2010PropOp29
 70
     1
102
RTVSPost2010Prop30
280
     1
102
RTVSPost2010PropOp30
 70
     1
102
RTVSPost2010Prop31
280
     0
102
RTVSPost2010PropOp31
 70
     1
102
RTVSPost2010Prop32
280
     0
102
RTVSPost2010PropOp32
 70
     1
102
RTVSPost2010Prop33
280
     0
102
RTVSPost2010PropOp33
 70
     1
102
RTVSPost2010Prop34
280
     0
102
RTVSPost2010PropOp34
 70
     1
102
RTVSPost2010Prop35
280
     0
102
RTVSPost2010PropOp35
 70
     1
102
RTVSPost2010Prop36
280
     0
102
RTVSPost2010PropOp36
 70
     1
102
RTVSPost2010Prop37
 90
       50
102
RTVSPost2010PropOp37
 70
     1
102
RTVSPost2010Prop38
140
0.0
102
RTVSPost2010PropOp38
 70
     1
102
RTVSPost2010Prop39
140
1.0
102
RTVSPost2010PropOp39
 70
     1
102
RTVSPost2010Prop40
 90
        0
102
RTVSPost2010PropOp40
 70
     1
102
RTVSPost2010Prop41ColorIndex
 90
       18
102
RTVSPost2010Prop41ColorRGB
 90
        0
102
RTVSPost2010PropOp41
 70
     1
102
RTVSPost2010Prop42
 90
       50
102
RTVSPost2010PropOp42
 70
     1
102
RTVSPost2010Prop43
 90
        3
102
RTVSPost2010PropOp43
 70
     1
102
RTVSPost2010Prop44ColorIndex
 90
        5
102
RTVSPost2010Prop44ColorRGB
 90
      255
102
RTVSPost2010PropOp44
 70
     1
102
RTVSPost2010Prop45
280
     0
102
RTVSPost2010PropOp45
 70
     1
102
RTVSPost2010Prop46
 90
       50
102
RTVSPost2010PropOp46
 70
     1
102
RTVSPost2010Prop47
 90
       50
102
RTVSPost2010PropOp47
 70
     1
102
RTVSPost2010Prop48
 90
       50
102
RTVSPost2010PropOp48
 70
     1
102
RTVSPost2010Prop49
280
     0
102
RTVSPost2010PropOp49
 70
     1
102
RTVSPost2010Prop50
 90
       50
102
RTVSPost2010PropOp50
 70
     1
102
RTVSPost2010Prop51ColorIndex
 90
      256
102
RTVSPost2010Prop51ColorRGB
 90
-16777216
102
RTVSPost2010PropOp51
 70
     0
102
RTVSPost2010Prop52
140
1.0
102
RTVSPost2010PropOp52
 70
     0
102
RTVSPost2010Prop53
 90
        2
102
RTVSPost2010PropOp53
 70
     1
102
RTVSPost2010Prop54
  1
strokes_ogs.tif
102
RTVSPost2010PropOp54
 70
     1
102
RTVSPost2010Prop55
280
     0
102
RTVSPost2010PropOp55
 70
     1
102
RTVSPost2010Prop56
140
1.0
102
RTVSPost2010PropOp56
 70
     1
102
RTVSPost2010Prop57
140
1.0
102
RTVSPost2010PropOp57
 70
     1
102
RTVSPropertyOp0
 70
     1
102
RTVSPropertyOp1
 70
     1
102
RTVSPropertyOp2
 70
     1
102
RTVSPropertyOp3
 70
     1
102
RTVSPropertyOp4
 70
     1
102
RTVSPropertyOp5
 70
     1
102
RTVSPropertyOp6
 70
     1
102
RTVSPropertyOp7
 70
     1
102
RTVSPropertyOp8
 70
     1
102
RTVSPropertyOp9
 70
     1
102
RTVSPropertyOp10
 70
     1
102
RTVSPropertyOp11
 70
     1
102
RTVSPropertyOp12
 70
     1
102
RTVSPropertyOp13
 70
     1
102
RTVSPropertyOp14
 70
     1
102
RTVSPropertyOp15
 70
     1
102
RTVSPropertyOp16
 70
     1
102
RTVSPropertyOp17
 70
     1
102
RTVSPropertyOp18
 70
     1
102
RTVSPropertyOp19
 70
     1
102
RTVSPropertyOp20
 70
     1
102
RTVSPropertyOp21
 70
     1
102
RTVSPropertyOp22
 70
     1
102
RTVSPropertyOp23
 70
     1
102
RTVSPropertyOp24
 70
     1
102
RTVSPropertyOp25
 70
     1
102
RTVSPropertyOp26
 70
     1
102
RTVSPropertyOp27
 70
     1
102
RTVSPropertyOp28
 70
     1
102
RTVSPropertyOp29
 70
     1
102
RTVSPropertyOp30
 70
     1
102
RTVSPropertyOp31
 70
     1
102
RTVSPropertyOp32
 70
     1
102
RTVSPropertyOp33
 70
     1
102
RTVSPropertyOp34
 70
     1
102
RTVSPropertyOp35
 70
     1
102
RTVSPropertyOp36
 70
     1
102
RTVSPropertyOp37
 70
     1
102
RTVSPropertyOp38
 70
     1
102
RTVSPropertyOp39
 70
     1
102
RTVSPropertyOp40
 70
     1
102
RTVSPropertyOp41
 70
     1
102
RTVSPropertyOp42
 70
     1
102
RTVSPropertyOp43
 70
     1
102
RTVSPropertyOp44
 70
     1
102
RTVSPropertyOp45
 70
     1
102
RTVSPropertyOp46
 70
     1
102
RTVSPropertyOp47
 70
     1
102
RTVSPropertyOp48
 70
     1
102
RTVSPropertyOp49
 70
     1
102
RTVSPropertyOp50
 70
     1
102
RTVSPropertyOp51
 70
     0
102
RTVSPropertyOp52
 70
     0
102
RTVSPropertyOp53
 70
     1
102
RTVSPropertyOp54
 70
     1
102
RTVSPropertyOp55
 70
     1
102
RTVSPropertyOp56
 70
     1
102
RTVSPropertyOp57
 70
     1
102
RTVSPropertyOp58
 70
     1
102
RTVSPropertyOp59
 70
     1
102
RTVSPropertyOp60
 70
     1
102
RTVSPropertyOp61
 70
     1
102
RTVSPropertyOp62
 70
     1
  0
XRECORD
  5
12944
102
{ACAD_REACTORS
330
12943
102
}
330
12943
100
AcDbXrecord
280
     1
102
RTVSPost2010Prop28
280
     0
102
RTVSPost2010PropOp28
 70
     1
102
RTVSPost2010Prop29
280
     1
102
RTVSPost2010PropOp29
 70
     1
102
RTVSPost2010Prop30
280
     1
102
RTVSPost2010PropOp30
 70
     1
102
RTVSPost2010Prop31
280
     0
102
RTVSPost2010PropOp31
 70
     1
102
RTVSPost2010Prop32
280
     0
102
RTVSPost2010PropOp32
 70
     1
102
RTVSPost2010Prop33
280
     0
102
RTVSPost2010PropOp33
 70
     1
102
RTVSPost2010Prop34
280
     0
102
RTVSPost2010PropOp34
 70
     1
102
RTVSPost2010Prop35
280
     0
102
RTVSPost2010PropOp35
 70
     1
102
RTVSPost2010Prop36
280
     0
102
RTVSPost2010PropOp36
 70
     1
102
RTVSPost2010Prop37
 90
       50
102
RTVSPost2010PropOp37
 70
     1
102
RTVSPost2010Prop38
140
0.0
102
RTVSPost2010PropOp38
 70
     1
102
RTVSPost2010Prop39
140
1.0
102
RTVSPost2010PropOp39
 70
     1
102
RTVSPost2010Prop40
 90
        0
102
RTVSPost2010PropOp40
 70
     1
102
RTVSPost2010Prop41ColorIndex
 90
       18
102
RTVSPost2010Prop41ColorRGB
 90
        0
102
RTVSPost2010PropOp41
 70
     1
102
RTVSPost2010Prop42
 90
       50
102
RTVSPost2010PropOp42
 70
     1
102
RTVSPost2010Prop43
 90
        3
102
RTVSPost2010PropOp43
 70
     1
102
RTVSPost2010Prop44ColorIndex
 90
        5
102
RTVSPost2010Prop44ColorRGB
 90
      255
102
RTVSPost2010PropOp44
 70
     1
102
RTVSPost2010Prop45
280
     0
102
RTVSPost2010PropOp45
 70
     1
102
RTVSPost2010Prop46
 90
       50
102
RTVSPost2010PropOp46
 70
     1
102
RTVSPost2010Prop47
 90
       50
102
RTVSPost2010PropOp47
 70
     1
102
RTVSPost2010Prop48
 90
       50
102
RTVSPost2010PropOp48
 70
     1
102
RTVSPost2010Prop49
280
     0
102
RTVSPost2010PropOp49
 70
     1
102
RTVSPost2010Prop50
 90
       50
102
RTVSPost2010PropOp50
 70
     1
102
RTVSPost2010Prop51ColorIndex
 90
      256
102
RTVSPost2010Prop51ColorRGB
 90
-16777216
102
RTVSPost2010PropOp51
 70
     0
102
RTVSPost2010Prop52
140
1.0
102
RTVSPost2010PropOp52
 70
     0
102
RTVSPost2010Prop53
 90
        2
102
RTVSPost2010PropOp53
 70
     1
102
RTVSPost2010Prop54
  1
strokes_ogs.tif
102
RTVSPost2010PropOp54
 70
     1
102
RTVSPost2010Prop55
280
     0
102
RTVSPost2010PropOp55
 70
     1
102
RTVSPost2010Prop56
140
1.0
102
RTVSPost2010PropOp56
 70
     1
102
RTVSPost2010Prop57
140
1.0
102
RTVSPost2010PropOp57
 70
     1
102
RTVSPropertyOp0
 70
     1
102
RTVSPropertyOp1
 70
     1
102
RTVSPropertyOp2
 70
     1
102
RTVSPropertyOp3
 70
     1
102
RTVSPropertyOp4
 70
     1
102
RTVSPropertyOp5
 70
     1
102
RTVSPropertyOp6
 70
     1
102
RTVSPropertyOp7
 70
     1
102
RTVSPropertyOp8
 70
     1
102
RTVSPropertyOp9
 70
     1
102
RTVSPropertyOp10
 70
     1
102
RTVSPropertyOp11
 70
     1
102
RTVSPropertyOp12
 70
     1
102
RTVSPropertyOp13
 70
     1
102
RTVSPropertyOp14
 70
     1
102
RTVSPropertyOp15
 70
     1
102
RTVSPropertyOp16
 70
     1
102
RTVSPropertyOp17
 70
     1
102
RTVSPropertyOp18
 70
     1
102
RTVSPropertyOp19
 70
     1
102
RTVSPropertyOp20
 70
     1
102
RTVSPropertyOp21
 70
     1
102
RTVSPropertyOp22
 70
     1
102
RTVSPropertyOp23
 70
     1
102
RTVSPropertyOp24
 70
     1
102
RTVSPropertyOp25
 70
     1
102
RTVSPropertyOp26
 70
     1
102
RTVSPropertyOp27
 70
     1
102
RTVSPropertyOp28
 70
     1
102
RTVSPropertyOp29
 70
     1
102
RTVSPropertyOp30
 70
     1
102
RTVSPropertyOp31
 70
     1
102
RTVSPropertyOp32
 70
     1
102
RTVSPropertyOp33
 70
     1
102
RTVSPropertyOp34
 70
     1
102
RTVSPropertyOp35
 70
     1
102
RTVSPropertyOp36
 70
     1
102
RTVSPropertyOp37
 70
     1
102
RTVSPropertyOp38
 70
     1
102
RTVSPropertyOp39
 70
     1
102
RTVSPropertyOp40
 70
     1
102
RTVSPropertyOp41
 70
     1
102
RTVSPropertyOp42
 70
     1
102
RTVSPropertyOp43
 70
     1
102
RTVSPropertyOp44
 70
     1
102
RTVSPropertyOp45
 70
     1
102
RTVSPropertyOp46
 70
     1
102
RTVSPropertyOp47
 70
     1
102
RTVSPropertyOp48
 70
     1
102
RTVSPropertyOp49
 70
     1
102
RTVSPropertyOp50
 70
     1
102
RTVSPropertyOp51
 70
     0
102
RTVSPropertyOp52
 70
     0
102
RTVSPropertyOp53
 70
     1
102
RTVSPropertyOp54
 70
     1
102
RTVSPropertyOp55
 70
     1
102
RTVSPropertyOp56
 70
     1
102
RTVSPropertyOp57
 70
     1
102
RTVSPropertyOp58
 70
     1
102
RTVSPropertyOp59
 70
     1
102
RTVSPropertyOp60
 70
     1
102
RTVSPropertyOp61
 70
     1
102
RTVSPropertyOp62
 70
     1
  0
XRECORD
  5
1294C
102
{ACAD_REACTORS
330
1294B
102
}
330
1294B
100
AcDbXrecord
280
     1
102
RTVSPost2010Prop28
280
     0
102
RTVSPost2010PropOp28
 70
     1
102
RTVSPost2010Prop29
280
     1
102
RTVSPost2010PropOp29
 70
     1
102
RTVSPost2010Prop30
280
     1
102
RTVSPost2010PropOp30
 70
     1
102
RTVSPost2010Prop31
280
     0
102
RTVSPost2010PropOp31
 70
     1
102
RTVSPost2010Prop32
280
     0
102
RTVSPost2010PropOp32
 70
     1
102
RTVSPost2010Prop33
280
     0
102
RTVSPost2010PropOp33
 70
     1
102
RTVSPost2010Prop34
280
     0
102
RTVSPost2010PropOp34
 70
     1
102
RTVSPost2010Prop35
280
     0
102
RTVSPost2010PropOp35
 70
     1
102
RTVSPost2010Prop36
280
     0
102
RTVSPost2010PropOp36
 70
     1
102
RTVSPost2010Prop37
 90
       50
102
RTVSPost2010PropOp37
 70
     1
102
RTVSPost2010Prop38
140
0.0
102
RTVSPost2010PropOp38
 70
     1
102
RTVSPost2010Prop39
140
1.0
102
RTVSPost2010PropOp39
 70
     1
102
RTVSPost2010Prop40
 90
        0
102
RTVSPost2010PropOp40
 70
     1
102
RTVSPost2010Prop41ColorIndex
 90
       18
102
RTVSPost2010Prop41ColorRGB
 90
        0
102
RTVSPost2010PropOp41
 70
     1
102
RTVSPost2010Prop42
 90
       50
102
RTVSPost2010PropOp42
 70
     1
102
RTVSPost2010Prop43
 90
        3
102
RTVSPost2010PropOp43
 70
     1
102
RTVSPost2010Prop44ColorIndex
 90
        5
102
RTVSPost2010Prop44ColorRGB
 90
      255
102
RTVSPost2010PropOp44
 70
     1
102
RTVSPost2010Prop45
280
     0
102
RTVSPost2010PropOp45
 70
     1
102
RTVSPost2010Prop46
 90
       50
102
RTVSPost2010PropOp46
 70
     1
102
RTVSPost2010Prop47
 90
       50
102
RTVSPost2010PropOp47
 70
     1
102
RTVSPost2010Prop48
 90
       50
102
RTVSPost2010PropOp48
 70
     1
102
RTVSPost2010Prop49
280
     0
102
RTVSPost2010PropOp49
 70
     1
102
RTVSPost2010Prop50
 90
       50
102
RTVSPost2010PropOp50
 70
     1
102
RTVSPost2010Prop51ColorIndex
 90
      256
102
RTVSPost2010Prop51ColorRGB
 90
-16777216
102
RTVSPost2010PropOp51
 70
     0
102
RTVSPost2010Prop52
140
1.0
102
RTVSPost2010PropOp52
 70
     0
102
RTVSPost2010Prop53
 90
        2
102
RTVSPost2010PropOp53
 70
     1
102
RTVSPost2010Prop54
  1
strokes_ogs.tif
102
RTVSPost2010PropOp54
 70
     1
102
RTVSPost2010Prop55
280
     0
102
RTVSPost2010PropOp55
 70
     1
102
RTVSPost2010Prop56
140
1.0
102
RTVSPost2010PropOp56
 70
     1
102
RTVSPost2010Prop57
140
1.0
102
RTVSPost2010PropOp57
 70
     1
102
RTVSPropertyOp0
 70
     1
102
RTVSPropertyOp1
 70
     1
102
RTVSPropertyOp2
 70
     1
102
RTVSPropertyOp3
 70
     1
102
RTVSPropertyOp4
 70
     1
102
RTVSPropertyOp5
 70
     1
102
RTVSPropertyOp6
 70
     1
102
RTVSPropertyOp7
 70
     1
102
RTVSPropertyOp8
 70
     1
102
RTVSPropertyOp9
 70
     1
102
RTVSPropertyOp10
 70
     1
102
RTVSPropertyOp11
 70
     1
102
RTVSPropertyOp12
 70
     1
102
RTVSPropertyOp13
 70
     1
102
RTVSPropertyOp14
 70
     1
102
RTVSPropertyOp15
 70
     1
102
RTVSPropertyOp16
 70
     1
102
RTVSPropertyOp17
 70
     1
102
RTVSPropertyOp18
 70
     1
102
RTVSPropertyOp19
 70
     1
102
RTVSPropertyOp20
 70
     1
102
RTVSPropertyOp21
 70
     1
102
RTVSPropertyOp22
 70
     1
102
RTVSPropertyOp23
 70
     1
102
RTVSPropertyOp24
 70
     1
102
RTVSPropertyOp25
 70
     1
102
RTVSPropertyOp26
 70
     1
102
RTVSPropertyOp27
 70
     1
102
RTVSPropertyOp28
 70
     1
102
RTVSPropertyOp29
 70
     1
102
RTVSPropertyOp30
 70
     1
102
RTVSPropertyOp31
 70
     1
102
RTVSPropertyOp32
 70
     1
102
RTVSPropertyOp33
 70
     1
102
RTVSPropertyOp34
 70
     1
102
RTVSPropertyOp35
 70
     1
102
RTVSPropertyOp36
 70
     1
102
RTVSPropertyOp37
 70
     1
102
RTVSPropertyOp38
 70
     1
102
RTVSPropertyOp39
 70
     1
102
RTVSPropertyOp40
 70
     1
102
RTVSPropertyOp41
 70
     1
102
RTVSPropertyOp42
 70
     1
102
RTVSPropertyOp43
 70
     1
102
RTVSPropertyOp44
 70
     1
102
RTVSPropertyOp45
 70
     1
102
RTVSPropertyOp46
 70
     1
102
RTVSPropertyOp47
 70
     1
102
RTVSPropertyOp48
 70
     1
102
RTVSPropertyOp49
 70
     1
102
RTVSPropertyOp50
 70
     1
102
RTVSPropertyOp51
 70
     0
102
RTVSPropertyOp52
 70
     0
102
RTVSPropertyOp53
 70
     1
102
RTVSPropertyOp54
 70
     1
102
RTVSPropertyOp55
 70
     1
102
RTVSPropertyOp56
 70
     1
102
RTVSPropertyOp57
 70
     1
102
RTVSPropertyOp58
 70
     1
102
RTVSPropertyOp59
 70
     1
102
RTVSPropertyOp60
 70
     1
102
RTVSPropertyOp61
 70
     1
102
RTVSPropertyOp62
 70
     1
  0
XRECORD
  5
1293E
102
{ACAD_REACTORS
330
1293D
102
}
330
1293D
100
AcDbXrecord
280
     1
102
RTVSPost2010Prop28
280
     0
102
RTVSPost2010PropOp28
 70
     1
102
RTVSPost2010Prop29
280
     1
102
RTVSPost2010PropOp29
 70
     1
102
RTVSPost2010Prop30
280
     1
102
RTVSPost2010PropOp30
 70
     1
102
RTVSPost2010Prop31
280
     0
102
RTVSPost2010PropOp31
 70
     1
102
RTVSPost2010Prop32
280
     0
102
RTVSPost2010PropOp32
 70
     1
102
RTVSPost2010Prop33
280
     0
102
RTVSPost2010PropOp33
 70
     1
102
RTVSPost2010Prop34
280
     0
102
RTVSPost2010PropOp34
 70
     1
102
RTVSPost2010Prop35
280
     0
102
RTVSPost2010PropOp35
 70
     1
102
RTVSPost2010Prop36
280
     0
102
RTVSPost2010PropOp36
 70
     1
102
RTVSPost2010Prop37
 90
       50
102
RTVSPost2010PropOp37
 70
     1
102
RTVSPost2010Prop38
140
0.0
102
RTVSPost2010PropOp38
 70
     1
102
RTVSPost2010Prop39
140
1.0
102
RTVSPost2010PropOp39
 70
     1
102
RTVSPost2010Prop40
 90
        0
102
RTVSPost2010PropOp40
 70
     1
102
RTVSPost2010Prop41ColorIndex
 90
       18
102
RTVSPost2010Prop41ColorRGB
 90
        0
102
RTVSPost2010PropOp41
 70
     1
102
RTVSPost2010Prop42
 90
       50
102
RTVSPost2010PropOp42
 70
     1
102
RTVSPost2010Prop43
 90
        3
102
RTVSPost2010PropOp43
 70
     1
102
RTVSPost2010Prop44ColorIndex
 90
        5
102
RTVSPost2010Prop44ColorRGB
 90
      255
102
RTVSPost2010PropOp44
 70
     1
102
RTVSPost2010Prop45
280
     0
102
RTVSPost2010PropOp45
 70
     1
102
RTVSPost2010Prop46
 90
       50
102
RTVSPost2010PropOp46
 70
     1
102
RTVSPost2010Prop47
 90
       50
102
RTVSPost2010PropOp47
 70
     1
102
RTVSPost2010Prop48
 90
       50
102
RTVSPost2010PropOp48
 70
     1
102
RTVSPost2010Prop49
280
     0
102
RTVSPost2010PropOp49
 70
     1
102
RTVSPost2010Prop50
 90
       50
102
RTVSPost2010PropOp50
 70
     1
102
RTVSPost2010Prop51ColorIndex
 90
      256
102
RTVSPost2010Prop51ColorRGB
 90
-16777216
102
RTVSPost2010PropOp51
 70
     0
102
RTVSPost2010Prop52
140
1.0
102
RTVSPost2010PropOp52
 70
     0
102
RTVSPost2010Prop53
 90
        2
102
RTVSPost2010PropOp53
 70
     1
102
RTVSPost2010Prop54
  1
strokes_ogs.tif
102
RTVSPost2010PropOp54
 70
     1
102
RTVSPost2010Prop55
280
     0
102
RTVSPost2010PropOp55
 70
     1
102
RTVSPost2010Prop56
140
1.0
102
RTVSPost2010PropOp56
 70
     1
102
RTVSPost2010Prop57
140
1.0
102
RTVSPost2010PropOp57
 70
     1
102
RTVSPropertyOp0
 70
     1
102
RTVSPropertyOp1
 70
     1
102
RTVSPropertyOp2
 70
     1
102
RTVSPropertyOp3
 70
     1
102
RTVSPropertyOp4
 70
     1
102
RTVSPropertyOp5
 70
     1
102
RTVSPropertyOp6
 70
     1
102
RTVSPropertyOp7
 70
     1
102
RTVSPropertyOp8
 70
     1
102
RTVSPropertyOp9
 70
     1
102
RTVSPropertyOp10
 70
     1
102
RTVSPropertyOp11
 70
     1
102
RTVSPropertyOp12
 70
     1
102
RTVSPropertyOp13
 70
     1
102
RTVSPropertyOp14
 70
     1
102
RTVSPropertyOp15
 70
     1
102
RTVSPropertyOp16
 70
     1
102
RTVSPropertyOp17
 70
     1
102
RTVSPropertyOp18
 70
     1
102
RTVSPropertyOp19
 70
     1
102
RTVSPropertyOp20
 70
     1
102
RTVSPropertyOp21
 70
     1
102
RTVSPropertyOp22
 70
     1
102
RTVSPropertyOp23
 70
     1
102
RTVSPropertyOp24
 70
     1
102
RTVSPropertyOp25
 70
     1
102
RTVSPropertyOp26
 70
     1
102
RTVSPropertyOp27
 70
     1
102
RTVSPropertyOp28
 70
     1
102
RTVSPropertyOp29
 70
     1
102
RTVSPropertyOp30
 70
     1
102
RTVSPropertyOp31
 70
     1
102
RTVSPropertyOp32
 70
     1
102
RTVSPropertyOp33
 70
     1
102
RTVSPropertyOp34
 70
     1
102
RTVSPropertyOp35
 70
     1
102
RTVSPropertyOp36
 70
     1
102
RTVSPropertyOp37
 70
     1
102
RTVSPropertyOp38
 70
     1
102
RTVSPropertyOp39
 70
     1
102
RTVSPropertyOp40
 70
     1
102
RTVSPropertyOp41
 70
     1
102
RTVSPropertyOp42
 70
     1
102
RTVSPropertyOp43
 70
     1
102
RTVSPropertyOp44
 70
     1
102
RTVSPropertyOp45
 70
     1
102
RTVSPropertyOp46
 70
     1
102
RTVSPropertyOp47
 70
     1
102
RTVSPropertyOp48
 70
     1
102
RTVSPropertyOp49
 70
     1
102
RTVSPropertyOp50
 70
     1
102
RTVSPropertyOp51
 70
     0
102
RTVSPropertyOp52
 70
     0
102
RTVSPropertyOp53
 70
     1
102
RTVSPropertyOp54
 70
     1
102
RTVSPropertyOp55
 70
     1
102
RTVSPropertyOp56
 70
     1
102
RTVSPropertyOp57
 70
     1
102
RTVSPropertyOp58
 70
     1
102
RTVSPropertyOp59
 70
     1
102
RTVSPropertyOp60
 70
     1
102
RTVSPropertyOp61
 70
     1
102
RTVSPropertyOp62
 70
     1
  0
XRECORD
  5
12942
102
{ACAD_REACTORS
330
12941
102
}
330
12941
100
AcDbXrecord
280
     1
102
RTVSPost2010Prop28
280
     0
102
RTVSPost2010PropOp28
 70
     1
102
RTVSPost2010Prop29
280
     1
102
RTVSPost2010PropOp29
 70
     1
102
RTVSPost2010Prop30
280
     1
102
RTVSPost2010PropOp30
 70
     1
102
RTVSPost2010Prop31
280
     0
102
RTVSPost2010PropOp31
 70
     1
102
RTVSPost2010Prop32
280
     0
102
RTVSPost2010PropOp32
 70
     1
102
RTVSPost2010Prop33
280
     0
102
RTVSPost2010PropOp33
 70
     1
102
RTVSPost2010Prop34
280
     0
102
RTVSPost2010PropOp34
 70
     1
102
RTVSPost2010Prop35
280
     0
102
RTVSPost2010PropOp35
 70
     1
102
RTVSPost2010Prop36
280
     0
102
RTVSPost2010PropOp36
 70
     1
102
RTVSPost2010Prop37
 90
       50
102
RTVSPost2010PropOp37
 70
     1
102
RTVSPost2010Prop38
140
0.0
102
RTVSPost2010PropOp38
 70
     1
102
RTVSPost2010Prop39
140
1.0
102
RTVSPost2010PropOp39
 70
     1
102
RTVSPost2010Prop40
 90
        0
102
RTVSPost2010PropOp40
 70
     1
102
RTVSPost2010Prop41ColorIndex
 90
       18
102
RTVSPost2010Prop41ColorRGB
 90
        0
102
RTVSPost2010PropOp41
 70
     1
102
RTVSPost2010Prop42
 90
       50
102
RTVSPost2010PropOp42
 70
     1
102
RTVSPost2010Prop43
 90
        3
102
RTVSPost2010PropOp43
 70
     1
102
RTVSPost2010Prop44ColorIndex
 90
        5
102
RTVSPost2010Prop44ColorRGB
 90
      255
102
RTVSPost2010PropOp44
 70
     1
102
RTVSPost2010Prop45
280
     0
102
RTVSPost2010PropOp45
 70
     1
102
RTVSPost2010Prop46
 90
       50
102
RTVSPost2010PropOp46
 70
     1
102
RTVSPost2010Prop47
 90
       50
102
RTVSPost2010PropOp47
 70
     1
102
RTVSPost2010Prop48
 90
       50
102
RTVSPost2010PropOp48
 70
     1
102
RTVSPost2010Prop49
280
     0
102
RTVSPost2010PropOp49
 70
     1
102
RTVSPost2010Prop50
 90
       50
102
RTVSPost2010PropOp50
 70
     1
102
RTVSPost2010Prop51ColorIndex
 90
      256
102
RTVSPost2010Prop51ColorRGB
 90
-16777216
102
RTVSPost2010PropOp51
 70
     0
102
RTVSPost2010Prop52
140
1.0
102
RTVSPost2010PropOp52
 70
     0
102
RTVSPost2010Prop53
 90
        2
102
RTVSPost2010PropOp53
 70
     1
102
RTVSPost2010Prop54
  1
strokes_ogs.tif
102
RTVSPost2010PropOp54
 70
     1
102
RTVSPost2010Prop55
280
     0
102
RTVSPost2010PropOp55
 70
     1
102
RTVSPost2010Prop56
140
1.0
102
RTVSPost2010PropOp56
 70
     1
102
RTVSPost2010Prop57
140
1.0
102
RTVSPost2010PropOp57
 70
     1
102
RTVSPropertyOp0
 70
     1
102
RTVSPropertyOp1
 70
     1
102
RTVSPropertyOp2
 70
     1
102
RTVSPropertyOp3
 70
     1
102
RTVSPropertyOp4
 70
     1
102
RTVSPropertyOp5
 70
     1
102
RTVSPropertyOp6
 70
     1
102
RTVSPropertyOp7
 70
     1
102
RTVSPropertyOp8
 70
     1
102
RTVSPropertyOp9
 70
     1
102
RTVSPropertyOp10
 70
     1
102
RTVSPropertyOp11
 70
     1
102
RTVSPropertyOp12
 70
     1
102
RTVSPropertyOp13
 70
     1
102
RTVSPropertyOp14
 70
     1
102
RTVSPropertyOp15
 70
     1
102
RTVSPropertyOp16
 70
     1
102
RTVSPropertyOp17
 70
     1
102
RTVSPropertyOp18
 70
     1
102
RTVSPropertyOp19
 70
     1
102
RTVSPropertyOp20
 70
     1
102
RTVSPropertyOp21
 70
     1
102
RTVSPropertyOp22
 70
     1
102
RTVSPropertyOp23
 70
     1
102
RTVSPropertyOp24
 70
     1
102
RTVSPropertyOp25
 70
     1
102
RTVSPropertyOp26
 70
     1
102
RTVSPropertyOp27
 70
     1
102
RTVSPropertyOp28
 70
     1
102
RTVSPropertyOp29
 70
     1
102
RTVSPropertyOp30
 70
     1
102
RTVSPropertyOp31
 70
     1
102
RTVSPropertyOp32
 70
     1
102
RTVSPropertyOp33
 70
     1
102
RTVSPropertyOp34
 70
     1
102
RTVSPropertyOp35
 70
     1
102
RTVSPropertyOp36
 70
     1
102
RTVSPropertyOp37
 70
     1
102
RTVSPropertyOp38
 70
     1
102
RTVSPropertyOp39
 70
     1
102
RTVSPropertyOp40
 70
     1
102
RTVSPropertyOp41
 70
     1
102
RTVSPropertyOp42
 70
     1
102
RTVSPropertyOp43
 70
     1
102
RTVSPropertyOp44
 70
     1
102
RTVSPropertyOp45
 70
     1
102
RTVSPropertyOp46
 70
     1
102
RTVSPropertyOp47
 70
     1
102
RTVSPropertyOp48
 70
     1
102
RTVSPropertyOp49
 70
     1
102
RTVSPropertyOp50
 70
     1
102
RTVSPropertyOp51
 70
     0
102
RTVSPropertyOp52
 70
     0
102
RTVSPropertyOp53
 70
     1
102
RTVSPropertyOp54
 70
     1
102
RTVSPropertyOp55
 70
     1
102
RTVSPropertyOp56
 70
     1
102
RTVSPropertyOp57
 70
     1
102
RTVSPropertyOp58
 70
     1
102
RTVSPropertyOp59
 70
     1
102
RTVSPropertyOp60
 70
     1
102
RTVSPropertyOp61
 70
     1
102
RTVSPropertyOp62
 70
     1
  0
XRECORD
  5
12952
102
{ACAD_REACTORS
330
12951
102
}
330
12951
100
AcDbXrecord
280
     1
102
RTVSPost2010Prop28
280
     0
102
RTVSPost2010PropOp28
 70
     1
102
RTVSPost2010Prop29
280
     1
102
RTVSPost2010PropOp29
 70
     1
102
RTVSPost2010Prop30
280
     1
102
RTVSPost2010PropOp30
 70
     1
102
RTVSPost2010Prop31
280
     0
102
RTVSPost2010PropOp31
 70
     1
102
RTVSPost2010Prop32
280
     0
102
RTVSPost2010PropOp32
 70
     1
102
RTVSPost2010Prop33
280
     0
102
RTVSPost2010PropOp33
 70
     1
102
RTVSPost2010Prop34
280
     0
102
RTVSPost2010PropOp34
 70
     1
102
RTVSPost2010Prop35
280
     0
102
RTVSPost2010PropOp35
 70
     1
102
RTVSPost2010Prop36
280
     0
102
RTVSPost2010PropOp36
 70
     1
102
RTVSPost2010Prop37
 90
       50
102
RTVSPost2010PropOp37
 70
     1
102
RTVSPost2010Prop38
140
0.0
102
RTVSPost2010PropOp38
 70
     1
102
RTVSPost2010Prop39
140
1.0
102
RTVSPost2010PropOp39
 70
     1
102
RTVSPost2010Prop40
 90
        0
102
RTVSPost2010PropOp40
 70
     1
102
RTVSPost2010Prop41ColorIndex
 90
       18
102
RTVSPost2010Prop41ColorRGB
 90
        0
102
RTVSPost2010PropOp41
 70
     1
102
RTVSPost2010Prop42
 90
       50
102
RTVSPost2010PropOp42
 70
     1
102
RTVSPost2010Prop43
 90
        3
102
RTVSPost2010PropOp43
 70
     1
102
RTVSPost2010Prop44ColorIndex
 90
        5
102
RTVSPost2010Prop44ColorRGB
 90
      255
102
RTVSPost2010PropOp44
 70
     1
102
RTVSPost2010Prop45
280
     0
102
RTVSPost2010PropOp45
 70
     1
102
RTVSPost2010Prop46
 90
       50
102
RTVSPost2010PropOp46
 70
     1
102
RTVSPost2010Prop47
 90
       50
102
RTVSPost2010PropOp47
 70
     1
102
RTVSPost2010Prop48
 90
       50
102
RTVSPost2010PropOp48
 70
     1
102
RTVSPost2010Prop49
280
     0
102
RTVSPost2010PropOp49
 70
     1
102
RTVSPost2010Prop50
 90
       50
102
RTVSPost2010PropOp50
 70
     1
102
RTVSPost2010Prop51ColorIndex
 90
      256
102
RTVSPost2010Prop51ColorRGB
 90
-16777216
102
RTVSPost2010PropOp51
 70
     0
102
RTVSPost2010Prop52
140
1.0
102
RTVSPost2010PropOp52
 70
     0
102
RTVSPost2010Prop53
 90
        2
102
RTVSPost2010PropOp53
 70
     1
102
RTVSPost2010Prop54
  1
strokes_ogs.tif
102
RTVSPost2010PropOp54
 70
     1
102
RTVSPost2010Prop55
280
     0
102
RTVSPost2010PropOp55
 70
     1
102
RTVSPost2010Prop56
140
1.0
102
RTVSPost2010PropOp56
 70
     1
102
RTVSPost2010Prop57
140
1.0
102
RTVSPost2010PropOp57
 70
     1
102
RTVSPropertyOp0
 70
     0
102
RTVSPropertyOp1
 70
     0
102
RTVSPropertyOp2
 70
     0
102
RTVSPropertyOp3
 70
     0
102
RTVSPropertyOp4
 70
     0
102
RTVSPropertyOp5
 70
     0
102
RTVSPropertyOp6
 70
     0
102
RTVSPropertyOp7
 70
     0
102
RTVSPropertyOp8
 70
     0
102
RTVSPropertyOp9
 70
     0
102
RTVSPropertyOp10
 70
     0
102
RTVSPropertyOp11
 70
     0
102
RTVSPropertyOp12
 70
     0
102
RTVSPropertyOp13
 70
     0
102
RTVSPropertyOp14
 70
     2
102
RTVSPropertyOp15
 70
     0
102
RTVSPropertyOp16
 70
     0
102
RTVSPropertyOp17
 70
     0
102
RTVSPropertyOp18
 70
     0
102
RTVSPropertyOp19
 70
     0
102
RTVSPropertyOp20
 70
     0
102
RTVSPropertyOp21
 70
     0
102
RTVSPropertyOp22
 70
     0
102
RTVSPropertyOp23
 70
     0
102
RTVSPropertyOp24
 70
     0
102
RTVSPropertyOp25
 70
     0
102
RTVSPropertyOp26
 70
     0
102
RTVSPropertyOp27
 70
     0
102
RTVSPropertyOp28
 70
     1
102
RTVSPropertyOp29
 70
     1
102
RTVSPropertyOp30
 70
     1
102
RTVSPropertyOp31
 70
     1
102
RTVSPropertyOp32
 70
     1
102
RTVSPropertyOp33
 70
     1
102
RTVSPropertyOp34
 70
     1
102
RTVSPropertyOp35
 70
     1
102
RTVSPropertyOp36
 70
     1
102
RTVSPropertyOp37
 70
     1
102
RTVSPropertyOp38
 70
     1
102
RTVSPropertyOp39
 70
     1
102
RTVSPropertyOp40
 70
     1
102
RTVSPropertyOp41
 70
     1
102
RTVSPropertyOp42
 70
     1
102
RTVSPropertyOp43
 70
     1
102
RTVSPropertyOp44
 70
     1
102
RTVSPropertyOp45
 70
     1
102
RTVSPropertyOp46
 70
     1
102
RTVSPropertyOp47
 70
     1
102
RTVSPropertyOp48
 70
     1
102
RTVSPropertyOp49
 70
     1
102
RTVSPropertyOp50
 70
     1
102
RTVSPropertyOp51
 70
     0
102
RTVSPropertyOp52
 70
     0
102
RTVSPropertyOp53
 70
     1
102
RTVSPropertyOp54
 70
     1
102
RTVSPropertyOp55
 70
     1
102
RTVSPropertyOp56
 70
     1
102
RTVSPropertyOp57
 70
     1
102
RTVSPropertyOp58
 70
     1
102
RTVSPropertyOp59
 70
     1
102
RTVSPropertyOp60
 70
     1
102
RTVSPropertyOp61
 70
     1
102
RTVSPropertyOp62
 70
     1
  0
XRECORD
  5
1294A
102
{ACAD_REACTORS
330
12949
102
}
330
12949
100
AcDbXrecord
280
     1
102
RTVSPost2010Prop28
280
     0
102
RTVSPost2010PropOp28
 70
     1
102
RTVSPost2010Prop29
280
     1
102
RTVSPost2010PropOp29
 70
     1
102
RTVSPost2010Prop30
280
     1
102
RTVSPost2010PropOp30
 70
     1
102
RTVSPost2010Prop31
280
     0
102
RTVSPost2010PropOp31
 70
     1
102
RTVSPost2010Prop32
280
     0
102
RTVSPost2010PropOp32
 70
     1
102
RTVSPost2010Prop33
280
     0
102
RTVSPost2010PropOp33
 70
     1
102
RTVSPost2010Prop34
280
     0
102
RTVSPost2010PropOp34
 70
     1
102
RTVSPost2010Prop35
280
     0
102
RTVSPost2010PropOp35
 70
     1
102
RTVSPost2010Prop36
280
     0
102
RTVSPost2010PropOp36
 70
     1
102
RTVSPost2010Prop37
 90
       50
102
RTVSPost2010PropOp37
 70
     1
102
RTVSPost2010Prop38
140
0.0
102
RTVSPost2010PropOp38
 70
     1
102
RTVSPost2010Prop39
140
1.0
102
RTVSPost2010PropOp39
 70
     1
102
RTVSPost2010Prop40
 90
        0
102
RTVSPost2010PropOp40
 70
     1
102
RTVSPost2010Prop41ColorIndex
 90
       18
102
RTVSPost2010Prop41ColorRGB
 90
        0
102
RTVSPost2010PropOp41
 70
     1
102
RTVSPost2010Prop42
 90
       50
102
RTVSPost2010PropOp42
 70
     1
102
RTVSPost2010Prop43
 90
        3
102
RTVSPost2010PropOp43
 70
     1
102
RTVSPost2010Prop44ColorIndex
 90
        5
102
RTVSPost2010Prop44ColorRGB
 90
      255
102
RTVSPost2010PropOp44
 70
     1
102
RTVSPost2010Prop45
280
     0
102
RTVSPost2010PropOp45
 70
     1
102
RTVSPost2010Prop46
 90
       50
102
RTVSPost2010PropOp46
 70
     1
102
RTVSPost2010Prop47
 90
       50
102
RTVSPost2010PropOp47
 70
     1
102
RTVSPost2010Prop48
 90
       50
102
RTVSPost2010PropOp48
 70
     1
102
RTVSPost2010Prop49
280
     0
102
RTVSPost2010PropOp49
 70
     1
102
RTVSPost2010Prop50
 90
       50
102
RTVSPost2010PropOp50
 70
     1
102
RTVSPost2010Prop51ColorIndex
 90
      256
102
RTVSPost2010Prop51ColorRGB
 90
-16777216
102
RTVSPost2010PropOp51
 70
     0
102
RTVSPost2010Prop52
140
1.0
102
RTVSPost2010PropOp52
 70
     0
102
RTVSPost2010Prop53
 90
        2
102
RTVSPost2010PropOp53
 70
     1
102
RTVSPost2010Prop54
  1
strokes_ogs.tif
102
RTVSPost2010PropOp54
 70
     1
102
RTVSPost2010Prop55
280
     0
102
RTVSPost2010PropOp55
 70
     1
102
RTVSPost2010Prop56
140
1.0
102
RTVSPost2010PropOp56
 70
     1
102
RTVSPost2010Prop57
140
1.0
102
RTVSPost2010PropOp57
 70
     1
102
RTVSPropertyOp0
 70
     1
102
RTVSPropertyOp1
 70
     1
102
RTVSPropertyOp2
 70
     1
102
RTVSPropertyOp3
 70
     1
102
RTVSPropertyOp4
 70
     1
102
RTVSPropertyOp5
 70
     1
102
RTVSPropertyOp6
 70
     1
102
RTVSPropertyOp7
 70
     1
102
RTVSPropertyOp8
 70
     1
102
RTVSPropertyOp9
 70
     1
102
RTVSPropertyOp10
 70
     1
102
RTVSPropertyOp11
 70
     1
102
RTVSPropertyOp12
 70
     1
102
RTVSPropertyOp13
 70
     1
102
RTVSPropertyOp14
 70
     1
102
RTVSPropertyOp15
 70
     1
102
RTVSPropertyOp16
 70
     1
102
RTVSPropertyOp17
 70
     1
102
RTVSPropertyOp18
 70
     1
102
RTVSPropertyOp19
 70
     1
102
RTVSPropertyOp20
 70
     1
102
RTVSPropertyOp21
 70
     1
102
RTVSPropertyOp22
 70
     1
102
RTVSPropertyOp23
 70
     1
102
RTVSPropertyOp24
 70
     1
102
RTVSPropertyOp25
 70
     1
102
RTVSPropertyOp26
 70
     1
102
RTVSPropertyOp27
 70
     1
102
RTVSPropertyOp28
 70
     1
102
RTVSPropertyOp29
 70
     1
102
RTVSPropertyOp30
 70
     1
102
RTVSPropertyOp31
 70
     1
102
RTVSPropertyOp32
 70
     1
102
RTVSPropertyOp33
 70
     1
102
RTVSPropertyOp34
 70
     1
102
RTVSPropertyOp35
 70
     1
102
RTVSPropertyOp36
 70
     1
102
RTVSPropertyOp37
 70
     1
102
RTVSPropertyOp38
 70
     1
102
RTVSPropertyOp39
 70
     1
102
RTVSPropertyOp40
 70
     1
102
RTVSPropertyOp41
 70
     1
102
RTVSPropertyOp42
 70
     1
102
RTVSPropertyOp43
 70
     1
102
RTVSPropertyOp44
 70
     1
102
RTVSPropertyOp45
 70
     1
102
RTVSPropertyOp46
 70
     1
102
RTVSPropertyOp47
 70
     1
102
RTVSPropertyOp48
 70
     1
102
RTVSPropertyOp49
 70
     1
102
RTVSPropertyOp50
 70
     1
102
RTVSPropertyOp51
 70
     0
102
RTVSPropertyOp52
 70
     0
102
RTVSPropertyOp53
 70
     1
102
RTVSPropertyOp54
 70
     1
102
RTVSPropertyOp55
 70
     1
102
RTVSPropertyOp56
 70
     1
102
RTVSPropertyOp57
 70
     1
102
RTVSPropertyOp58
 70
     1
102
RTVSPropertyOp59
 70
     1
102
RTVSPropertyOp60
 70
     1
102
RTVSPropertyOp61
 70
     1
102
RTVSPropertyOp62
 70
     1
  0
XRECORD
  5
1292E
102
{ACAD_REACTORS
330
1292D
102
}
330
1292D
100
AcDbXrecord
280
     1
102
RTVSPost2010Prop28
280
     0
102
RTVSPost2010PropOp28
 70
     1
102
RTVSPost2010Prop29
280
     1
102
RTVSPost2010PropOp29
 70
     1
102
RTVSPost2010Prop30
280
     1
102
RTVSPost2010PropOp30
 70
     1
102
RTVSPost2010Prop31
280
     0
102
RTVSPost2010PropOp31
 70
     1
102
RTVSPost2010Prop32
280
     0
102
RTVSPost2010PropOp32
 70
     1
102
RTVSPost2010Prop33
280
     0
102
RTVSPost2010PropOp33
 70
     1
102
RTVSPost2010Prop34
280
     0
102
RTVSPost2010PropOp34
 70
     1
102
RTVSPost2010Prop35
280
     0
102
RTVSPost2010PropOp35
 70
     1
102
RTVSPost2010Prop36
280
     0
102
RTVSPost2010PropOp36
 70
     1
102
RTVSPost2010Prop37
 90
       50
102
RTVSPost2010PropOp37
 70
     1
102
RTVSPost2010Prop38
140
0.0
102
RTVSPost2010PropOp38
 70
     1
102
RTVSPost2010Prop39
140
1.0
102
RTVSPost2010PropOp39
 70
     1
102
RTVSPost2010Prop40
 90
        0
102
RTVSPost2010PropOp40
 70
     1
102
RTVSPost2010Prop41ColorIndex
 90
       18
102
RTVSPost2010Prop41ColorRGB
 90
        0
102
RTVSPost2010PropOp41
 70
     1
102
RTVSPost2010Prop42
 90
       50
102
RTVSPost2010PropOp42
 70
     1
102
RTVSPost2010Prop43
 90
        3
102
RTVSPost2010PropOp43
 70
     1
102
RTVSPost2010Prop44ColorIndex
 90
        5
102
RTVSPost2010Prop44ColorRGB
 90
      255
102
RTVSPost2010PropOp44
 70
     1
102
RTVSPost2010Prop45
280
     0
102
RTVSPost2010PropOp45
 70
     1
102
RTVSPost2010Prop46
 90
       50
102
RTVSPost2010PropOp46
 70
     1
102
RTVSPost2010Prop47
 90
       50
102
RTVSPost2010PropOp47
 70
     1
102
RTVSPost2010Prop48
 90
       50
102
RTVSPost2010PropOp48
 70
     1
102
RTVSPost2010Prop49
280
     0
102
RTVSPost2010PropOp49
 70
     1
102
RTVSPost2010Prop50
 90
       50
102
RTVSPost2010PropOp50
 70
     1
102
RTVSPost2010Prop51ColorIndex
 90
      256
102
RTVSPost2010Prop51ColorRGB
 90
-16777216
102
RTVSPost2010PropOp51
 70
     0
102
RTVSPost2010Prop52
140
1.0
102
RTVSPost2010PropOp52
 70
     0
102
RTVSPost2010Prop53
 90
        2
102
RTVSPost2010PropOp53
 70
     1
102
RTVSPost2010Prop54
  1
strokes_ogs.tif
102
RTVSPost2010PropOp54
 70
     1
102
RTVSPost2010Prop55
280
     0
102
RTVSPost2010PropOp55
 70
     1
102
RTVSPost2010Prop56
140
1.0
102
RTVSPost2010PropOp56
 70
     1
102
RTVSPost2010Prop57
140
1.0
102
RTVSPost2010PropOp57
 70
     1
102
RTVSPropertyOp0
 70
     1
102
RTVSPropertyOp1
 70
     1
102
RTVSPropertyOp2
 70
     1
102
RTVSPropertyOp3
 70
     1
102
RTVSPropertyOp4
 70
     1
102
RTVSPropertyOp5
 70
     1
102
RTVSPropertyOp6
 70
     1
102
RTVSPropertyOp7
 70
     1
102
RTVSPropertyOp8
 70
     1
102
RTVSPropertyOp9
 70
     1
102
RTVSPropertyOp10
 70
     1
102
RTVSPropertyOp11
 70
     1
102
RTVSPropertyOp12
 70
     1
102
RTVSPropertyOp13
 70
     1
102
RTVSPropertyOp14
 70
     1
102
RTVSPropertyOp15
 70
     1
102
RTVSPropertyOp16
 70
     1
102
RTVSPropertyOp17
 70
     1
102
RTVSPropertyOp18
 70
     1
102
RTVSPropertyOp19
 70
     1
102
RTVSPropertyOp20
 70
     1
102
RTVSPropertyOp21
 70
     1
102
RTVSPropertyOp22
 70
     1
102
RTVSPropertyOp23
 70
     1
102
RTVSPropertyOp24
 70
     1
102
RTVSPropertyOp25
 70
     1
102
RTVSPropertyOp26
 70
     1
102
RTVSPropertyOp27
 70
     1
102
RTVSPropertyOp28
 70
     1
102
RTVSPropertyOp29
 70
     1
102
RTVSPropertyOp30
 70
     1
102
RTVSPropertyOp31
 70
     1
102
RTVSPropertyOp32
 70
     1
102
RTVSPropertyOp33
 70
     1
102
RTVSPropertyOp34
 70
     1
102
RTVSPropertyOp35
 70
     1
102
RTVSPropertyOp36
 70
     1
102
RTVSPropertyOp37
 70
     1
102
RTVSPropertyOp38
 70
     1
102
RTVSPropertyOp39
 70
     1
102
RTVSPropertyOp40
 70
     1
102
RTVSPropertyOp41
 70
     1
102
RTVSPropertyOp42
 70
     1
102
RTVSPropertyOp43
 70
     1
102
RTVSPropertyOp44
 70
     1
102
RTVSPropertyOp45
 70
     1
102
RTVSPropertyOp46
 70
     1
102
RTVSPropertyOp47
 70
     1
102
RTVSPropertyOp48
 70
     1
102
RTVSPropertyOp49
 70
     1
102
RTVSPropertyOp50
 70
     1
102
RTVSPropertyOp51
 70
     0
102
RTVSPropertyOp52
 70
     0
102
RTVSPropertyOp53
 70
     1
102
RTVSPropertyOp54
 70
     1
102
RTVSPropertyOp55
 70
     1
102
RTVSPropertyOp56
 70
     1
102
RTVSPropertyOp57
 70
     1
102
RTVSPropertyOp58
 70
     1
102
RTVSPropertyOp59
 70
     1
102
RTVSPropertyOp60
 70
     1
102
RTVSPropertyOp61
 70
     1
102
RTVSPropertyOp62
 70
     1
  0
XRECORD
  5
12930
102
{ACAD_REACTORS
330
1292F
102
}
330
1292F
100
AcDbXrecord
280
     1
102
RTVSPost2010Prop28
280
     0
102
RTVSPost2010PropOp28
 70
     1
102
RTVSPost2010Prop29
280
     1
102
RTVSPost2010PropOp29
 70
     1
102
RTVSPost2010Prop30
280
     1
102
RTVSPost2010PropOp30
 70
     1
102
RTVSPost2010Prop31
280
     0
102
RTVSPost2010PropOp31
 70
     1
102
RTVSPost2010Prop32
280
     0
102
RTVSPost2010PropOp32
 70
     1
102
RTVSPost2010Prop33
280
     0
102
RTVSPost2010PropOp33
 70
     1
102
RTVSPost2010Prop34
280
     0
102
RTVSPost2010PropOp34
 70
     1
102
RTVSPost2010Prop35
280
     0
102
RTVSPost2010PropOp35
 70
     1
102
RTVSPost2010Prop36
280
     0
102
RTVSPost2010PropOp36
 70
     1
102
RTVSPost2010Prop37
 90
       50
102
RTVSPost2010PropOp37
 70
     1
102
RTVSPost2010Prop38
140
0.0
102
RTVSPost2010PropOp38
 70
     1
102
RTVSPost2010Prop39
140
1.0
102
RTVSPost2010PropOp39
 70
     1
102
RTVSPost2010Prop40
 90
        0
102
RTVSPost2010PropOp40
 70
     1
102
RTVSPost2010Prop41ColorIndex
 90
       18
102
RTVSPost2010Prop41ColorRGB
 90
        0
102
RTVSPost2010PropOp41
 70
     1
102
RTVSPost2010Prop42
 90
       50
102
RTVSPost2010PropOp42
 70
     1
102
RTVSPost2010Prop43
 90
        3
102
RTVSPost2010PropOp43
 70
     1
102
RTVSPost2010Prop44ColorIndex
 90
        5
102
RTVSPost2010Prop44ColorRGB
 90
      255
102
RTVSPost2010PropOp44
 70
     1
102
RTVSPost2010Prop45
280
     0
102
RTVSPost2010PropOp45
 70
     1
102
RTVSPost2010Prop46
 90
       50
102
RTVSPost2010PropOp46
 70
     1
102
RTVSPost2010Prop47
 90
       50
102
RTVSPost2010PropOp47
 70
     1
102
RTVSPost2010Prop48
 90
       50
102
RTVSPost2010PropOp48
 70
     1
102
RTVSPost2010Prop49
280
     0
102
RTVSPost2010PropOp49
 70
     1
102
RTVSPost2010Prop50
 90
       50
102
RTVSPost2010PropOp50
 70
     1
102
RTVSPost2010Prop51ColorIndex
 90
      256
102
RTVSPost2010Prop51ColorRGB
 90
-16777216
102
RTVSPost2010PropOp51
 70
     0
102
RTVSPost2010Prop52
140
1.0
102
RTVSPost2010PropOp52
 70
     0
102
RTVSPost2010Prop53
 90
        2
102
RTVSPost2010PropOp53
 70
     1
102
RTVSPost2010Prop54
  1
strokes_ogs.tif
102
RTVSPost2010PropOp54
 70
     1
102
RTVSPost2010Prop55
280
     0
102
RTVSPost2010PropOp55
 70
     1
102
RTVSPost2010Prop56
140
1.0
102
RTVSPost2010PropOp56
 70
     1
102
RTVSPost2010Prop57
140
1.0
102
RTVSPost2010PropOp57
 70
     1
102
RTVSPropertyOp0
 70
     1
102
RTVSPropertyOp1
 70
     1
102
RTVSPropertyOp2
 70
     1
102
RTVSPropertyOp3
 70
     1
102
RTVSPropertyOp4
 70
     1
102
RTVSPropertyOp5
 70
     1
102
RTVSPropertyOp6
 70
     1
102
RTVSPropertyOp7
 70
     1
102
RTVSPropertyOp8
 70
     1
102
RTVSPropertyOp9
 70
     1
102
RTVSPropertyOp10
 70
     1
102
RTVSPropertyOp11
 70
     1
102
RTVSPropertyOp12
 70
     1
102
RTVSPropertyOp13
 70
     1
102
RTVSPropertyOp14
 70
     1
102
RTVSPropertyOp15
 70
     1
102
RTVSPropertyOp16
 70
     1
102
RTVSPropertyOp17
 70
     1
102
RTVSPropertyOp18
 70
     1
102
RTVSPropertyOp19
 70
     1
102
RTVSPropertyOp20
 70
     1
102
RTVSPropertyOp21
 70
     1
102
RTVSPropertyOp22
 70
     1
102
RTVSPropertyOp23
 70
     1
102
RTVSPropertyOp24
 70
     1
102
RTVSPropertyOp25
 70
     1
102
RTVSPropertyOp26
 70
     1
102
RTVSPropertyOp27
 70
     1
102
RTVSPropertyOp28
 70
     1
102
RTVSPropertyOp29
 70
     1
102
RTVSPropertyOp30
 70
     1
102
RTVSPropertyOp31
 70
     1
102
RTVSPropertyOp32
 70
     1
102
RTVSPropertyOp33
 70
     1
102
RTVSPropertyOp34
 70
     1
102
RTVSPropertyOp35
 70
     1
102
RTVSPropertyOp36
 70
     1
102
RTVSPropertyOp37
 70
     1
102
RTVSPropertyOp38
 70
     1
102
RTVSPropertyOp39
 70
     1
102
RTVSPropertyOp40
 70
     1
102
RTVSPropertyOp41
 70
     1
102
RTVSPropertyOp42
 70
     1
102
RTVSPropertyOp43
 70
     1
102
RTVSPropertyOp44
 70
     1
102
RTVSPropertyOp45
 70
     1
102
RTVSPropertyOp46
 70
     1
102
RTVSPropertyOp47
 70
     1
102
RTVSPropertyOp48
 70
     1
102
RTVSPropertyOp49
 70
     1
102
RTVSPropertyOp50
 70
     1
102
RTVSPropertyOp51
 70
     0
102
RTVSPropertyOp52
 70
     0
102
RTVSPropertyOp53
 70
     1
102
RTVSPropertyOp54
 70
     1
102
RTVSPropertyOp55
 70
     1
102
RTVSPropertyOp56
 70
     1
102
RTVSPropertyOp57
 70
     1
102
RTVSPropertyOp58
 70
     1
102
RTVSPropertyOp59
 70
     1
102
RTVSPropertyOp60
 70
     1
102
RTVSPropertyOp61
 70
     1
102
RTVSPropertyOp62
 70
     1
  0
XRECORD
  5
12932
102
{ACAD_REACTORS
330
12931
102
}
330
12931
100
AcDbXrecord
280
     1
102
RTVSPost2010Prop28
280
     0
102
RTVSPost2010PropOp28
 70
     1
102
RTVSPost2010Prop29
280
     1
102
RTVSPost2010PropOp29
 70
     1
102
RTVSPost2010Prop30
280
     1
102
RTVSPost2010PropOp30
 70
     1
102
RTVSPost2010Prop31
280
     0
102
RTVSPost2010PropOp31
 70
     1
102
RTVSPost2010Prop32
280
     0
102
RTVSPost2010PropOp32
 70
     1
102
RTVSPost2010Prop33
280
     0
102
RTVSPost2010PropOp33
 70
     1
102
RTVSPost2010Prop34
280
     0
102
RTVSPost2010PropOp34
 70
     1
102
RTVSPost2010Prop35
280
     0
102
RTVSPost2010PropOp35
 70
     1
102
RTVSPost2010Prop36
280
     0
102
RTVSPost2010PropOp36
 70
     1
102
RTVSPost2010Prop37
 90
       50
102
RTVSPost2010PropOp37
 70
     1
102
RTVSPost2010Prop38
140
0.0
102
RTVSPost2010PropOp38
 70
     1
102
RTVSPost2010Prop39
140
1.0
102
RTVSPost2010PropOp39
 70
     1
102
RTVSPost2010Prop40
 90
        0
102
RTVSPost2010PropOp40
 70
     1
102
RTVSPost2010Prop41ColorIndex
 90
       18
102
RTVSPost2010Prop41ColorRGB
 90
        0
102
RTVSPost2010PropOp41
 70
     1
102
RTVSPost2010Prop42
 90
       50
102
RTVSPost2010PropOp42
 70
     1
102
RTVSPost2010Prop43
 90
        3
102
RTVSPost2010PropOp43
 70
     1
102
RTVSPost2010Prop44ColorIndex
 90
        5
102
RTVSPost2010Prop44ColorRGB
 90
      255
102
RTVSPost2010PropOp44
 70
     1
102
RTVSPost2010Prop45
280
     0
102
RTVSPost2010PropOp45
 70
     1
102
RTVSPost2010Prop46
 90
       50
102
RTVSPost2010PropOp46
 70
     1
102
RTVSPost2010Prop47
 90
       50
102
RTVSPost2010PropOp47
 70
     1
102
RTVSPost2010Prop48
 90
       50
102
RTVSPost2010PropOp48
 70
     1
102
RTVSPost2010Prop49
280
     0
102
RTVSPost2010PropOp49
 70
     1
102
RTVSPost2010Prop50
 90
       50
102
RTVSPost2010PropOp50
 70
     1
102
RTVSPost2010Prop51ColorIndex
 90
      256
102
RTVSPost2010Prop51ColorRGB
 90
-16777216
102
RTVSPost2010PropOp51
 70
     0
102
RTVSPost2010Prop52
140
1.0
102
RTVSPost2010PropOp52
 70
     0
102
RTVSPost2010Prop53
 90
        2
102
RTVSPost2010PropOp53
 70
     1
102
RTVSPost2010Prop54
  1
strokes_ogs.tif
102
RTVSPost2010PropOp54
 70
     1
102
RTVSPost2010Prop55
280
     0
102
RTVSPost2010PropOp55
 70
     1
102
RTVSPost2010Prop56
140
1.0
102
RTVSPost2010PropOp56
 70
     1
102
RTVSPost2010Prop57
140
1.0
102
RTVSPost2010PropOp57
 70
     1
102
RTVSPropertyOp0
 70
     1
102
RTVSPropertyOp1
 70
     1
102
RTVSPropertyOp2
 70
     1
102
RTVSPropertyOp3
 70
     1
102
RTVSPropertyOp4
 70
     1
102
RTVSPropertyOp5
 70
     1
102
RTVSPropertyOp6
 70
     1
102
RTVSPropertyOp7
 70
     1
102
RTVSPropertyOp8
 70
     1
102
RTVSPropertyOp9
 70
     1
102
RTVSPropertyOp10
 70
     1
102
RTVSPropertyOp11
 70
     1
102
RTVSPropertyOp12
 70
     1
102
RTVSPropertyOp13
 70
     1
102
RTVSPropertyOp14
 70
     1
102
RTVSPropertyOp15
 70
     1
102
RTVSPropertyOp16
 70
     1
102
RTVSPropertyOp17
 70
     1
102
RTVSPropertyOp18
 70
     1
102
RTVSPropertyOp19
 70
     1
102
RTVSPropertyOp20
 70
     1
102
RTVSPropertyOp21
 70
     1
102
RTVSPropertyOp22
 70
     1
102
RTVSPropertyOp23
 70
     1
102
RTVSPropertyOp24
 70
     1
102
RTVSPropertyOp25
 70
     1
102
RTVSPropertyOp26
 70
     1
102
RTVSPropertyOp27
 70
     1
102
RTVSPropertyOp28
 70
     1
102
RTVSPropertyOp29
 70
     1
102
RTVSPropertyOp30
 70
     1
102
RTVSPropertyOp31
 70
     1
102
RTVSPropertyOp32
 70
     1
102
RTVSPropertyOp33
 70
     1
102
RTVSPropertyOp34
 70
     1
102
RTVSPropertyOp35
 70
     1
102
RTVSPropertyOp36
 70
     1
102
RTVSPropertyOp37
 70
     1
102
RTVSPropertyOp38
 70
     1
102
RTVSPropertyOp39
 70
     1
102
RTVSPropertyOp40
 70
     1
102
RTVSPropertyOp41
 70
     1
102
RTVSPropertyOp42
 70
     1
102
RTVSPropertyOp43
 70
     1
102
RTVSPropertyOp44
 70
     1
102
RTVSPropertyOp45
 70
     1
102
RTVSPropertyOp46
 70
     1
102
RTVSPropertyOp47
 70
     1
102
RTVSPropertyOp48
 70
     1
102
RTVSPropertyOp49
 70
     1
102
RTVSPropertyOp50
 70
     1
102
RTVSPropertyOp51
 70
     0
102
RTVSPropertyOp52
 70
     0
102
RTVSPropertyOp53
 70
     1
102
RTVSPropertyOp54
 70
     1
102
RTVSPropertyOp55
 70
     1
102
RTVSPropertyOp56
 70
     1
102
RTVSPropertyOp57
 70
     1
102
RTVSPropertyOp58
 70
     1
102
RTVSPropertyOp59
 70
     1
102
RTVSPropertyOp60
 70
     1
102
RTVSPropertyOp61
 70
     1
102
RTVSPropertyOp62
 70
     1
  0
XRECORD
  5
12934
102
{ACAD_REACTORS
330
12933
102
}
330
12933
100
AcDbXrecord
280
     1
102
RTVSPost2010Prop28
280
     0
102
RTVSPost2010PropOp28
 70
     1
102
RTVSPost2010Prop29
280
     1
102
RTVSPost2010PropOp29
 70
     1
102
RTVSPost2010Prop30
280
     1
102
RTVSPost2010PropOp30
 70
     1
102
RTVSPost2010Prop31
280
     0
102
RTVSPost2010PropOp31
 70
     1
102
RTVSPost2010Prop32
280
     0
102
RTVSPost2010PropOp32
 70
     1
102
RTVSPost2010Prop33
280
     0
102
RTVSPost2010PropOp33
 70
     1
102
RTVSPost2010Prop34
280
     0
102
RTVSPost2010PropOp34
 70
     1
102
RTVSPost2010Prop35
280
     0
102
RTVSPost2010PropOp35
 70
     1
102
RTVSPost2010Prop36
280
     0
102
RTVSPost2010PropOp36
 70
     1
102
RTVSPost2010Prop37
 90
       50
102
RTVSPost2010PropOp37
 70
     1
102
RTVSPost2010Prop38
140
0.0
102
RTVSPost2010PropOp38
 70
     1
102
RTVSPost2010Prop39
140
1.0
102
RTVSPost2010PropOp39
 70
     1
102
RTVSPost2010Prop40
 90
        0
102
RTVSPost2010PropOp40
 70
     1
102
RTVSPost2010Prop41ColorIndex
 90
       18
102
RTVSPost2010Prop41ColorRGB
 90
        0
102
RTVSPost2010PropOp41
 70
     1
102
RTVSPost2010Prop42
 90
       50
102
RTVSPost2010PropOp42
 70
     1
102
RTVSPost2010Prop43
 90
        3
102
RTVSPost2010PropOp43
 70
     1
102
RTVSPost2010Prop44ColorIndex
 90
        5
102
RTVSPost2010Prop44ColorRGB
 90
      255
102
RTVSPost2010PropOp44
 70
     1
102
RTVSPost2010Prop45
280
     0
102
RTVSPost2010PropOp45
 70
     1
102
RTVSPost2010Prop46
 90
       50
102
RTVSPost2010PropOp46
 70
     1
102
RTVSPost2010Prop47
 90
       50
102
RTVSPost2010PropOp47
 70
     1
102
RTVSPost2010Prop48
 90
       50
102
RTVSPost2010PropOp48
 70
     1
102
RTVSPost2010Prop49
280
     0
102
RTVSPost2010PropOp49
 70
     1
102
RTVSPost2010Prop50
 90
       50
102
RTVSPost2010PropOp50
 70
     1
102
RTVSPost2010Prop51ColorIndex
 90
      256
102
RTVSPost2010Prop51ColorRGB
 90
-16777216
102
RTVSPost2010PropOp51
 70
     0
102
RTVSPost2010Prop52
140
1.0
102
RTVSPost2010PropOp52
 70
     0
102
RTVSPost2010Prop53
 90
        2
102
RTVSPost2010PropOp53
 70
     1
102
RTVSPost2010Prop54
  1
strokes_ogs.tif
102
RTVSPost2010PropOp54
 70
     1
102
RTVSPost2010Prop55
280
     0
102
RTVSPost2010PropOp55
 70
     1
102
RTVSPost2010Prop56
140
1.0
102
RTVSPost2010PropOp56
 70
     1
102
RTVSPost2010Prop57
140
1.0
102
RTVSPost2010PropOp57
 70
     1
102
RTVSPropertyOp0
 70
     1
102
RTVSPropertyOp1
 70
     1
102
RTVSPropertyOp2
 70
     1
102
RTVSPropertyOp3
 70
     1
102
RTVSPropertyOp4
 70
     1
102
RTVSPropertyOp5
 70
     1
102
RTVSPropertyOp6
 70
     1
102
RTVSPropertyOp7
 70
     1
102
RTVSPropertyOp8
 70
     1
102
RTVSPropertyOp9
 70
     1
102
RTVSPropertyOp10
 70
     1
102
RTVSPropertyOp11
 70
     1
102
RTVSPropertyOp12
 70
     1
102
RTVSPropertyOp13
 70
     1
102
RTVSPropertyOp14
 70
     1
102
RTVSPropertyOp15
 70
     1
102
RTVSPropertyOp16
 70
     1
102
RTVSPropertyOp17
 70
     1
102
RTVSPropertyOp18
 70
     1
102
RTVSPropertyOp19
 70
     1
102
RTVSPropertyOp20
 70
     1
102
RTVSPropertyOp21
 70
     1
102
RTVSPropertyOp22
 70
     1
102
RTVSPropertyOp23
 70
     1
102
RTVSPropertyOp24
 70
     1
102
RTVSPropertyOp25
 70
     1
102
RTVSPropertyOp26
 70
     1
102
RTVSPropertyOp27
 70
     1
102
RTVSPropertyOp28
 70
     1
102
RTVSPropertyOp29
 70
     1
102
RTVSPropertyOp30
 70
     1
102
RTVSPropertyOp31
 70
     1
102
RTVSPropertyOp32
 70
     1
102
RTVSPropertyOp33
 70
     1
102
RTVSPropertyOp34
 70
     1
102
RTVSPropertyOp35
 70
     1
102
RTVSPropertyOp36
 70
     1
102
RTVSPropertyOp37
 70
     1
102
RTVSPropertyOp38
 70
     1
102
RTVSPropertyOp39
 70
     1
102
RTVSPropertyOp40
 70
     1
102
RTVSPropertyOp41
 70
     1
102
RTVSPropertyOp42
 70
     1
102
RTVSPropertyOp43
 70
     1
102
RTVSPropertyOp44
 70
     1
102
RTVSPropertyOp45
 70
     1
102
RTVSPropertyOp46
 70
     1
102
RTVSPropertyOp47
 70
     1
102
RTVSPropertyOp48
 70
     1
102
RTVSPropertyOp49
 70
     1
102
RTVSPropertyOp50
 70
     1
102
RTVSPropertyOp51
 70
     0
102
RTVSPropertyOp52
 70
     0
102
RTVSPropertyOp53
 70
     1
102
RTVSPropertyOp54
 70
     1
102
RTVSPropertyOp55
 70
     1
102
RTVSPropertyOp56
 70
     1
102
RTVSPropertyOp57
 70
     1
102
RTVSPropertyOp58
 70
     1
102
RTVSPropertyOp59
 70
     1
102
RTVSPropertyOp60
 70
     1
102
RTVSPropertyOp61
 70
     1
102
RTVSPropertyOp62
 70
     1
  0
XRECORD
  5
1293C
102
{ACAD_REACTORS
330
1293B
102
}
330
1293B
100
AcDbXrecord
280
     1
102
RTVSPost2010Prop28
280
     0
102
RTVSPost2010PropOp28
 70
     1
102
RTVSPost2010Prop29
280
     1
102
RTVSPost2010PropOp29
 70
     1
102
RTVSPost2010Prop30
280
     1
102
RTVSPost2010PropOp30
 70
     1
102
RTVSPost2010Prop31
280
     0
102
RTVSPost2010PropOp31
 70
     1
102
RTVSPost2010Prop32
280
     0
102
RTVSPost2010PropOp32
 70
     1
102
RTVSPost2010Prop33
280
     0
102
RTVSPost2010PropOp33
 70
     1
102
RTVSPost2010Prop34
280
     0
102
RTVSPost2010PropOp34
 70
     1
102
RTVSPost2010Prop35
280
     0
102
RTVSPost2010PropOp35
 70
     1
102
RTVSPost2010Prop36
280
     0
102
RTVSPost2010PropOp36
 70
     1
102
RTVSPost2010Prop37
 90
       50
102
RTVSPost2010PropOp37
 70
     1
102
RTVSPost2010Prop38
140
0.0
102
RTVSPost2010PropOp38
 70
     1
102
RTVSPost2010Prop39
140
1.0
102
RTVSPost2010PropOp39
 70
     1
102
RTVSPost2010Prop40
 90
        0
102
RTVSPost2010PropOp40
 70
     1
102
RTVSPost2010Prop41ColorIndex
 90
       18
102
RTVSPost2010Prop41ColorRGB
 90
        0
102
RTVSPost2010PropOp41
 70
     1
102
RTVSPost2010Prop42
 90
       50
102
RTVSPost2010PropOp42
 70
     1
102
RTVSPost2010Prop43
 90
        3
102
RTVSPost2010PropOp43
 70
     1
102
RTVSPost2010Prop44ColorIndex
 90
        5
102
RTVSPost2010Prop44ColorRGB
 90
      255
102
RTVSPost2010PropOp44
 70
     1
102
RTVSPost2010Prop45
280
     0
102
RTVSPost2010PropOp45
 70
     1
102
RTVSPost2010Prop46
 90
       50
102
RTVSPost2010PropOp46
 70
     1
102
RTVSPost2010Prop47
 90
       50
102
RTVSPost2010PropOp47
 70
     1
102
RTVSPost2010Prop48
 90
       50
102
RTVSPost2010PropOp48
 70
     1
102
RTVSPost2010Prop49
280
     0
102
RTVSPost2010PropOp49
 70
     1
102
RTVSPost2010Prop50
 90
       50
102
RTVSPost2010PropOp50
 70
     1
102
RTVSPost2010Prop51ColorIndex
 90
      256
102
RTVSPost2010Prop51ColorRGB
 90
-16777216
102
RTVSPost2010PropOp51
 70
     0
102
RTVSPost2010Prop52
140
1.0
102
RTVSPost2010PropOp52
 70
     0
102
RTVSPost2010Prop53
 90
        2
102
RTVSPost2010PropOp53
 70
     1
102
RTVSPost2010Prop54
  1
strokes_ogs.tif
102
RTVSPost2010PropOp54
 70
     1
102
RTVSPost2010Prop55
280
     0
102
RTVSPost2010PropOp55
 70
     1
102
RTVSPost2010Prop56
140
1.0
102
RTVSPost2010PropOp56
 70
     1
102
RTVSPost2010Prop57
140
1.0
102
RTVSPost2010PropOp57
 70
     1
102
RTVSPropertyOp0
 70
     1
102
RTVSPropertyOp1
 70
     1
102
RTVSPropertyOp2
 70
     1
102
RTVSPropertyOp3
 70
     1
102
RTVSPropertyOp4
 70
     1
102
RTVSPropertyOp5
 70
     1
102
RTVSPropertyOp6
 70
     1
102
RTVSPropertyOp7
 70
     1
102
RTVSPropertyOp8
 70
     1
102
RTVSPropertyOp9
 70
     1
102
RTVSPropertyOp10
 70
     1
102
RTVSPropertyOp11
 70
     1
102
RTVSPropertyOp12
 70
     1
102
RTVSPropertyOp13
 70
     1
102
RTVSPropertyOp14
 70
     1
102
RTVSPropertyOp15
 70
     1
102
RTVSPropertyOp16
 70
     1
102
RTVSPropertyOp17
 70
     1
102
RTVSPropertyOp18
 70
     1
102
RTVSPropertyOp19
 70
     1
102
RTVSPropertyOp20
 70
     1
102
RTVSPropertyOp21
 70
     1
102
RTVSPropertyOp22
 70
     1
102
RTVSPropertyOp23
 70
     1
102
RTVSPropertyOp24
 70
     1
102
RTVSPropertyOp25
 70
     1
102
RTVSPropertyOp26
 70
     1
102
RTVSPropertyOp27
 70
     1
102
RTVSPropertyOp28
 70
     1
102
RTVSPropertyOp29
 70
     1
102
RTVSPropertyOp30
 70
     1
102
RTVSPropertyOp31
 70
     1
102
RTVSPropertyOp32
 70
     1
102
RTVSPropertyOp33
 70
     1
102
RTVSPropertyOp34
 70
     1
102
RTVSPropertyOp35
 70
     1
102
RTVSPropertyOp36
 70
     1
102
RTVSPropertyOp37
 70
     1
102
RTVSPropertyOp38
 70
     1
102
RTVSPropertyOp39
 70
     1
102
RTVSPropertyOp40
 70
     1
102
RTVSPropertyOp41
 70
     1
102
RTVSPropertyOp42
 70
     1
102
RTVSPropertyOp43
 70
     1
102
RTVSPropertyOp44
 70
     1
102
RTVSPropertyOp45
 70
     1
102
RTVSPropertyOp46
 70
     1
102
RTVSPropertyOp47
 70
     1
102
RTVSPropertyOp48
 70
     1
102
RTVSPropertyOp49
 70
     1
102
RTVSPropertyOp50
 70
     1
102
RTVSPropertyOp51
 70
     0
102
RTVSPropertyOp52
 70
     0
102
RTVSPropertyOp53
 70
     1
102
RTVSPropertyOp54
 70
     1
102
RTVSPropertyOp55
 70
     1
102
RTVSPropertyOp56
 70
     1
102
RTVSPropertyOp57
 70
     1
102
RTVSPropertyOp58
 70
     1
102
RTVSPropertyOp59
 70
     1
102
RTVSPropertyOp60
 70
     1
102
RTVSPropertyOp61
 70
     1
102
RTVSPropertyOp62
 70
     1
  0
XRECORD
  5
1294E
102
{ACAD_REACTORS
330
1294D
102
}
330
1294D
100
AcDbXrecord
280
     1
102
RTVSPost2010Prop28
280
     0
102
RTVSPost2010PropOp28
 70
     1
102
RTVSPost2010Prop29
280
     1
102
RTVSPost2010PropOp29
 70
     1
102
RTVSPost2010Prop30
280
     1
102
RTVSPost2010PropOp30
 70
     1
102
RTVSPost2010Prop31
280
     0
102
RTVSPost2010PropOp31
 70
     1
102
RTVSPost2010Prop32
280
     0
102
RTVSPost2010PropOp32
 70
     1
102
RTVSPost2010Prop33
280
     0
102
RTVSPost2010PropOp33
 70
     1
102
RTVSPost2010Prop34
280
     0
102
RTVSPost2010PropOp34
 70
     1
102
RTVSPost2010Prop35
280
     0
102
RTVSPost2010PropOp35
 70
     1
102
RTVSPost2010Prop36
280
     0
102
RTVSPost2010PropOp36
 70
     1
102
RTVSPost2010Prop37
 90
       50
102
RTVSPost2010PropOp37
 70
     1
102
RTVSPost2010Prop38
140
0.0
102
RTVSPost2010PropOp38
 70
     1
102
RTVSPost2010Prop39
140
1.0
102
RTVSPost2010PropOp39
 70
     1
102
RTVSPost2010Prop40
 90
        0
102
RTVSPost2010PropOp40
 70
     1
102
RTVSPost2010Prop41ColorIndex
 90
       18
102
RTVSPost2010Prop41ColorRGB
 90
        0
102
RTVSPost2010PropOp41
 70
     1
102
RTVSPost2010Prop42
 90
       50
102
RTVSPost2010PropOp42
 70
     1
102
RTVSPost2010Prop43
 90
        3
102
RTVSPost2010PropOp43
 70
     1
102
RTVSPost2010Prop44ColorIndex
 90
        5
102
RTVSPost2010Prop44ColorRGB
 90
      255
102
RTVSPost2010PropOp44
 70
     1
102
RTVSPost2010Prop45
280
     0
102
RTVSPost2010PropOp45
 70
     1
102
RTVSPost2010Prop46
 90
       50
102
RTVSPost2010PropOp46
 70
     1
102
RTVSPost2010Prop47
 90
       50
102
RTVSPost2010PropOp47
 70
     1
102
RTVSPost2010Prop48
 90
       50
102
RTVSPost2010PropOp48
 70
     1
102
RTVSPost2010Prop49
280
     0
102
RTVSPost2010PropOp49
 70
     1
102
RTVSPost2010Prop50
 90
       50
102
RTVSPost2010PropOp50
 70
     1
102
RTVSPost2010Prop51ColorIndex
 90
      256
102
RTVSPost2010Prop51ColorRGB
 90
-16777216
102
RTVSPost2010PropOp51
 70
     0
102
RTVSPost2010Prop52
140
1.0
102
RTVSPost2010PropOp52
 70
     0
102
RTVSPost2010Prop53
 90
        2
102
RTVSPost2010PropOp53
 70
     1
102
RTVSPost2010Prop54
  1
strokes_ogs.tif
102
RTVSPost2010PropOp54
 70
     1
102
RTVSPost2010Prop55
280
     0
102
RTVSPost2010PropOp55
 70
     1
102
RTVSPost2010Prop56
140
1.0
102
RTVSPost2010PropOp56
 70
     1
102
RTVSPost2010Prop57
140
1.0
102
RTVSPost2010PropOp57
 70
     1
102
RTVSPropertyOp0
 70
     0
102
RTVSPropertyOp1
 70
     0
102
RTVSPropertyOp2
 70
     0
102
RTVSPropertyOp3
 70
     0
102
RTVSPropertyOp4
 70
     0
102
RTVSPropertyOp5
 70
     0
102
RTVSPropertyOp6
 70
     0
102
RTVSPropertyOp7
 70
     0
102
RTVSPropertyOp8
 70
     0
102
RTVSPropertyOp9
 70
     0
102
RTVSPropertyOp10
 70
     0
102
RTVSPropertyOp11
 70
     0
102
RTVSPropertyOp12
 70
     0
102
RTVSPropertyOp13
 70
     0
102
RTVSPropertyOp14
 70
     2
102
RTVSPropertyOp15
 70
     0
102
RTVSPropertyOp16
 70
     0
102
RTVSPropertyOp17
 70
     0
102
RTVSPropertyOp18
 70
     0
102
RTVSPropertyOp19
 70
     0
102
RTVSPropertyOp20
 70
     0
102
RTVSPropertyOp21
 70
     0
102
RTVSPropertyOp22
 70
     0
102
RTVSPropertyOp23
 70
     0
102
RTVSPropertyOp24
 70
     0
102
RTVSPropertyOp25
 70
     0
102
RTVSPropertyOp26
 70
     0
102
RTVSPropertyOp27
 70
     0
102
RTVSPropertyOp28
 70
     1
102
RTVSPropertyOp29
 70
     1
102
RTVSPropertyOp30
 70
     1
102
RTVSPropertyOp31
 70
     1
102
RTVSPropertyOp32
 70
     1
102
RTVSPropertyOp33
 70
     1
102
RTVSPropertyOp34
 70
     1
102
RTVSPropertyOp35
 70
     1
102
RTVSPropertyOp36
 70
     1
102
RTVSPropertyOp37
 70
     1
102
RTVSPropertyOp38
 70
     1
102
RTVSPropertyOp39
 70
     1
102
RTVSPropertyOp40
 70
     1
102
RTVSPropertyOp41
 70
     1
102
RTVSPropertyOp42
 70
     1
102
RTVSPropertyOp43
 70
     1
102
RTVSPropertyOp44
 70
     1
102
RTVSPropertyOp45
 70
     1
102
RTVSPropertyOp46
 70
     1
102
RTVSPropertyOp47
 70
     1
102
RTVSPropertyOp48
 70
     1
102
RTVSPropertyOp49
 70
     1
102
RTVSPropertyOp50
 70
     1
102
RTVSPropertyOp51
 70
     0
102
RTVSPropertyOp52
 70
     0
102
RTVSPropertyOp53
 70
     1
102
RTVSPropertyOp54
 70
     1
102
RTVSPropertyOp55
 70
     1
102
RTVSPropertyOp56
 70
     1
102
RTVSPropertyOp57
 70
     1
102
RTVSPropertyOp58
 70
     1
102
RTVSPropertyOp59
 70
     1
102
RTVSPropertyOp60
 70
     1
102
RTVSPropertyOp61
 70
     1
102
RTVSPropertyOp62
 70
     1
  0
XRECORD
  5
12948
102
{ACAD_REACTORS
330
12947
102
}
330
12947
100
AcDbXrecord
280
     1
102
RTVSPost2010Prop28
280
     0
102
RTVSPost2010PropOp28
 70
     1
102
RTVSPost2010Prop29
280
     1
102
RTVSPost2010PropOp29
 70
     1
102
RTVSPost2010Prop30
280
     1
102
RTVSPost2010PropOp30
 70
     1
102
RTVSPost2010Prop31
280
     0
102
RTVSPost2010PropOp31
 70
     1
102
RTVSPost2010Prop32
280
     0
102
RTVSPost2010PropOp32
 70
     1
102
RTVSPost2010Prop33
280
     0
102
RTVSPost2010PropOp33
 70
     1
102
RTVSPost2010Prop34
280
     0
102
RTVSPost2010PropOp34
 70
     1
102
RTVSPost2010Prop35
280
     0
102
RTVSPost2010PropOp35
 70
     1
102
RTVSPost2010Prop36
280
     0
102
RTVSPost2010PropOp36
 70
     1
102
RTVSPost2010Prop37
 90
       50
102
RTVSPost2010PropOp37
 70
     1
102
RTVSPost2010Prop38
140
0.0
102
RTVSPost2010PropOp38
 70
     1
102
RTVSPost2010Prop39
140
1.0
102
RTVSPost2010PropOp39
 70
     1
102
RTVSPost2010Prop40
 90
        0
102
RTVSPost2010PropOp40
 70
     1
102
RTVSPost2010Prop41ColorIndex
 90
       18
102
RTVSPost2010Prop41ColorRGB
 90
        0
102
RTVSPost2010PropOp41
 70
     1
102
RTVSPost2010Prop42
 90
       50
102
RTVSPost2010PropOp42
 70
     1
102
RTVSPost2010Prop43
 90
        3
102
RTVSPost2010PropOp43
 70
     1
102
RTVSPost2010Prop44ColorIndex
 90
        5
102
RTVSPost2010Prop44ColorRGB
 90
      255
102
RTVSPost2010PropOp44
 70
     1
102
RTVSPost2010Prop45
280
     0
102
RTVSPost2010PropOp45
 70
     1
102
RTVSPost2010Prop46
 90
       50
102
RTVSPost2010PropOp46
 70
     1
102
RTVSPost2010Prop47
 90
       50
102
RTVSPost2010PropOp47
 70
     1
102
RTVSPost2010Prop48
 90
       50
102
RTVSPost2010PropOp48
 70
     1
102
RTVSPost2010Prop49
280
     0
102
RTVSPost2010PropOp49
 70
     1
102
RTVSPost2010Prop50
 90
       50
102
RTVSPost2010PropOp50
 70
     1
102
RTVSPost2010Prop51ColorIndex
 90
      256
102
RTVSPost2010Prop51ColorRGB
 90
-16777216
102
RTVSPost2010PropOp51
 70
     0
102
RTVSPost2010Prop52
140
1.0
102
RTVSPost2010PropOp52
 70
     0
102
RTVSPost2010Prop53
 90
        2
102
RTVSPost2010PropOp53
 70
     1
102
RTVSPost2010Prop54
  1
strokes_ogs.tif
102
RTVSPost2010PropOp54
 70
     1
102
RTVSPost2010Prop55
280
     0
102
RTVSPost2010PropOp55
 70
     1
102
RTVSPost2010Prop56
140
1.0
102
RTVSPost2010PropOp56
 70
     1
102
RTVSPost2010Prop57
140
1.0
102
RTVSPost2010PropOp57
 70
     1
102
RTVSPropertyOp0
 70
     1
102
RTVSPropertyOp1
 70
     1
102
RTVSPropertyOp2
 70
     1
102
RTVSPropertyOp3
 70
     1
102
RTVSPropertyOp4
 70
     1
102
RTVSPropertyOp5
 70
     1
102
RTVSPropertyOp6
 70
     1
102
RTVSPropertyOp7
 70
     1
102
RTVSPropertyOp8
 70
     1
102
RTVSPropertyOp9
 70
     1
102
RTVSPropertyOp10
 70
     1
102
RTVSPropertyOp11
 70
     1
102
RTVSPropertyOp12
 70
     1
102
RTVSPropertyOp13
 70
     1
102
RTVSPropertyOp14
 70
     1
102
RTVSPropertyOp15
 70
     1
102
RTVSPropertyOp16
 70
     1
102
RTVSPropertyOp17
 70
     1
102
RTVSPropertyOp18
 70
     1
102
RTVSPropertyOp19
 70
     1
102
RTVSPropertyOp20
 70
     1
102
RTVSPropertyOp21
 70
     1
102
RTVSPropertyOp22
 70
     1
102
RTVSPropertyOp23
 70
     1
102
RTVSPropertyOp24
 70
     1
102
RTVSPropertyOp25
 70
     1
102
RTVSPropertyOp26
 70
     1
102
RTVSPropertyOp27
 70
     1
102
RTVSPropertyOp28
 70
     1
102
RTVSPropertyOp29
 70
     1
102
RTVSPropertyOp30
 70
     1
102
RTVSPropertyOp31
 70
     1
102
RTVSPropertyOp32
 70
     1
102
RTVSPropertyOp33
 70
     1
102
RTVSPropertyOp34
 70
     1
102
RTVSPropertyOp35
 70
     1
102
RTVSPropertyOp36
 70
     1
102
RTVSPropertyOp37
 70
     1
102
RTVSPropertyOp38
 70
     1
102
RTVSPropertyOp39
 70
     1
102
RTVSPropertyOp40
 70
     1
102
RTVSPropertyOp41
 70
     1
102
RTVSPropertyOp42
 70
     1
102
RTVSPropertyOp43
 70
     1
102
RTVSPropertyOp44
 70
     1
102
RTVSPropertyOp45
 70
     1
102
RTVSPropertyOp46
 70
     1
102
RTVSPropertyOp47
 70
     1
102
RTVSPropertyOp48
 70
     1
102
RTVSPropertyOp49
 70
     1
102
RTVSPropertyOp50
 70
     1
102
RTVSPropertyOp51
 70
     0
102
RTVSPropertyOp52
 70
     0
102
RTVSPropertyOp53
 70
     1
102
RTVSPropertyOp54
 70
     1
102
RTVSPropertyOp55
 70
     1
102
RTVSPropertyOp56
 70
     1
102
RTVSPropertyOp57
 70
     1
102
RTVSPropertyOp58
 70
     1
102
RTVSPropertyOp59
 70
     1
102
RTVSPropertyOp60
 70
     1
102
RTVSPropertyOp61
 70
     1
102
RTVSPropertyOp62
 70
     1
  0
XRECORD
  5
12950
102
{ACAD_REACTORS
330
1294F
102
}
330
1294F
100
AcDbXrecord
280
     1
102
RTVSPost2010Prop28
280
     0
102
RTVSPost2010PropOp28
 70
     1
102
RTVSPost2010Prop29
280
     1
102
RTVSPost2010PropOp29
 70
     1
102
RTVSPost2010Prop30
280
     1
102
RTVSPost2010PropOp30
 70
     1
102
RTVSPost2010Prop31
280
     0
102
RTVSPost2010PropOp31
 70
     1
102
RTVSPost2010Prop32
280
     0
102
RTVSPost2010PropOp32
 70
     1
102
RTVSPost2010Prop33
280
     0
102
RTVSPost2010PropOp33
 70
     1
102
RTVSPost2010Prop34
280
     0
102
RTVSPost2010PropOp34
 70
     1
102
RTVSPost2010Prop35
280
     0
102
RTVSPost2010PropOp35
 70
     1
102
RTVSPost2010Prop36
280
     0
102
RTVSPost2010PropOp36
 70
     1
102
RTVSPost2010Prop37
 90
       50
102
RTVSPost2010PropOp37
 70
     1
102
RTVSPost2010Prop38
140
0.0
102
RTVSPost2010PropOp38
 70
     1
102
RTVSPost2010Prop39
140
1.0
102
RTVSPost2010PropOp39
 70
     1
102
RTVSPost2010Prop40
 90
        0
102
RTVSPost2010PropOp40
 70
     1
102
RTVSPost2010Prop41ColorIndex
 90
       18
102
RTVSPost2010Prop41ColorRGB
 90
        0
102
RTVSPost2010PropOp41
 70
     1
102
RTVSPost2010Prop42
 90
       50
102
RTVSPost2010PropOp42
 70
     1
102
RTVSPost2010Prop43
 90
        3
102
RTVSPost2010PropOp43
 70
     1
102
RTVSPost2010Prop44ColorIndex
 90
        5
102
RTVSPost2010Prop44ColorRGB
 90
      255
102
RTVSPost2010PropOp44
 70
     1
102
RTVSPost2010Prop45
280
     0
102
RTVSPost2010PropOp45
 70
     1
102
RTVSPost2010Prop46
 90
       50
102
RTVSPost2010PropOp46
 70
     1
102
RTVSPost2010Prop47
 90
       50
102
RTVSPost2010PropOp47
 70
     1
102
RTVSPost2010Prop48
 90
       50
102
RTVSPost2010PropOp48
 70
     1
102
RTVSPost2010Prop49
280
     0
102
RTVSPost2010PropOp49
 70
     1
102
RTVSPost2010Prop50
 90
       50
102
RTVSPost2010PropOp50
 70
     1
102
RTVSPost2010Prop51ColorIndex
 90
      256
102
RTVSPost2010Prop51ColorRGB
 90
-16777216
102
RTVSPost2010PropOp51
 70
     0
102
RTVSPost2010Prop52
140
1.0
102
RTVSPost2010PropOp52
 70
     0
102
RTVSPost2010Prop53
 90
        2
102
RTVSPost2010PropOp53
 70
     1
102
RTVSPost2010Prop54
  1
strokes_ogs.tif
102
RTVSPost2010PropOp54
 70
     1
102
RTVSPost2010Prop55
280
     0
102
RTVSPost2010PropOp55
 70
     1
102
RTVSPost2010Prop56
140
1.0
102
RTVSPost2010PropOp56
 70
     1
102
RTVSPost2010Prop57
140
1.0
102
RTVSPost2010PropOp57
 70
     1
102
RTVSPropertyOp0
 70
     0
102
RTVSPropertyOp1
 70
     0
102
RTVSPropertyOp2
 70
     0
102
RTVSPropertyOp3
 70
     0
102
RTVSPropertyOp4
 70
     0
102
RTVSPropertyOp5
 70
     0
102
RTVSPropertyOp6
 70
     0
102
RTVSPropertyOp7
 70
     0
102
RTVSPropertyOp8
 70
     0
102
RTVSPropertyOp9
 70
     0
102
RTVSPropertyOp10
 70
     0
102
RTVSPropertyOp11
 70
     0
102
RTVSPropertyOp12
 70
     0
102
RTVSPropertyOp13
 70
     0
102
RTVSPropertyOp14
 70
     2
102
RTVSPropertyOp15
 70
     0
102
RTVSPropertyOp16
 70
     0
102
RTVSPropertyOp17
 70
     0
102
RTVSPropertyOp18
 70
     0
102
RTVSPropertyOp19
 70
     0
102
RTVSPropertyOp20
 70
     0
102
RTVSPropertyOp21
 70
     0
102
RTVSPropertyOp22
 70
     0
102
RTVSPropertyOp23
 70
     0
102
RTVSPropertyOp24
 70
     0
102
RTVSPropertyOp25
 70
     0
102
RTVSPropertyOp26
 70
     0
102
RTVSPropertyOp27
 70
     0
102
RTVSPropertyOp28
 70
     1
102
RTVSPropertyOp29
 70
     1
102
RTVSPropertyOp30
 70
     1
102
RTVSPropertyOp31
 70
     1
102
RTVSPropertyOp32
 70
     1
102
RTVSPropertyOp33
 70
     1
102
RTVSPropertyOp34
 70
     1
102
RTVSPropertyOp35
 70
     1
102
RTVSPropertyOp36
 70
     1
102
RTVSPropertyOp37
 70
     1
102
RTVSPropertyOp38
 70
     1
102
RTVSPropertyOp39
 70
     1
102
RTVSPropertyOp40
 70
     1
102
RTVSPropertyOp41
 70
     1
102
RTVSPropertyOp42
 70
     1
102
RTVSPropertyOp43
 70
     1
102
RTVSPropertyOp44
 70
     1
102
RTVSPropertyOp45
 70
     1
102
RTVSPropertyOp46
 70
     1
102
RTVSPropertyOp47
 70
     1
102
RTVSPropertyOp48
 70
     1
102
RTVSPropertyOp49
 70
     1
102
RTVSPropertyOp50
 70
     1
102
RTVSPropertyOp51
 70
     0
102
RTVSPropertyOp52
 70
     0
102
RTVSPropertyOp53
 70
     1
102
RTVSPropertyOp54
 70
     1
102
RTVSPropertyOp55
 70
     1
102
RTVSPropertyOp56
 70
     1
102
RTVSPropertyOp57
 70
     1
102
RTVSPropertyOp58
 70
     1
102
RTVSPropertyOp59
 70
     1
102
RTVSPropertyOp60
 70
     1
102
RTVSPropertyOp61
 70
     1
102
RTVSPropertyOp62
 70
     1
  0
XRECORD
  5
12940
102
{ACAD_REACTORS
330
1293F
102
}
330
1293F
100
AcDbXrecord
280
     1
102
RTVSPost2010Prop28
280
     0
102
RTVSPost2010PropOp28
 70
     1
102
RTVSPost2010Prop29
280
     1
102
RTVSPost2010PropOp29
 70
     1
102
RTVSPost2010Prop30
280
     1
102
RTVSPost2010PropOp30
 70
     1
102
RTVSPost2010Prop31
280
     0
102
RTVSPost2010PropOp31
 70
     1
102
RTVSPost2010Prop32
280
     0
102
RTVSPost2010PropOp32
 70
     1
102
RTVSPost2010Prop33
280
     0
102
RTVSPost2010PropOp33
 70
     1
102
RTVSPost2010Prop34
280
     0
102
RTVSPost2010PropOp34
 70
     1
102
RTVSPost2010Prop35
280
     0
102
RTVSPost2010PropOp35
 70
     1
102
RTVSPost2010Prop36
280
     0
102
RTVSPost2010PropOp36
 70
     1
102
RTVSPost2010Prop37
 90
       50
102
RTVSPost2010PropOp37
 70
     1
102
RTVSPost2010Prop38
140
0.0
102
RTVSPost2010PropOp38
 70
     1
102
RTVSPost2010Prop39
140
1.0
102
RTVSPost2010PropOp39
 70
     1
102
RTVSPost2010Prop40
 90
        0
102
RTVSPost2010PropOp40
 70
     1
102
RTVSPost2010Prop41ColorIndex
 90
       18
102
RTVSPost2010Prop41ColorRGB
 90
        0
102
RTVSPost2010PropOp41
 70
     1
102
RTVSPost2010Prop42
 90
       50
102
RTVSPost2010PropOp42
 70
     1
102
RTVSPost2010Prop43
 90
        3
102
RTVSPost2010PropOp43
 70
     1
102
RTVSPost2010Prop44ColorIndex
 90
        5
102
RTVSPost2010Prop44ColorRGB
 90
      255
102
RTVSPost2010PropOp44
 70
     1
102
RTVSPost2010Prop45
280
     0
102
RTVSPost2010PropOp45
 70
     1
102
RTVSPost2010Prop46
 90
       50
102
RTVSPost2010PropOp46
 70
     1
102
RTVSPost2010Prop47
 90
       50
102
RTVSPost2010PropOp47
 70
     1
102
RTVSPost2010Prop48
 90
       50
102
RTVSPost2010PropOp48
 70
     1
102
RTVSPost2010Prop49
280
     0
102
RTVSPost2010PropOp49
 70
     1
102
RTVSPost2010Prop50
 90
       50
102
RTVSPost2010PropOp50
 70
     1
102
RTVSPost2010Prop51ColorIndex
 90
      256
102
RTVSPost2010Prop51ColorRGB
 90
-16777216
102
RTVSPost2010PropOp51
 70
     0
102
RTVSPost2010Prop52
140
1.0
102
RTVSPost2010PropOp52
 70
     0
102
RTVSPost2010Prop53
 90
        2
102
RTVSPost2010PropOp53
 70
     1
102
RTVSPost2010Prop54
  1
strokes_ogs.tif
102
RTVSPost2010PropOp54
 70
     1
102
RTVSPost2010Prop55
280
     0
102
RTVSPost2010PropOp55
 70
     1
102
RTVSPost2010Prop56
140
1.0
102
RTVSPost2010PropOp56
 70
     1
102
RTVSPost2010Prop57
140
1.0
102
RTVSPost2010PropOp57
 70
     1
102
RTVSPropertyOp0
 70
     1
102
RTVSPropertyOp1
 70
     1
102
RTVSPropertyOp2
 70
     1
102
RTVSPropertyOp3
 70
     1
102
RTVSPropertyOp4
 70
     1
102
RTVSPropertyOp5
 70
     1
102
RTVSPropertyOp6
 70
     1
102
RTVSPropertyOp7
 70
     1
102
RTVSPropertyOp8
 70
     1
102
RTVSPropertyOp9
 70
     1
102
RTVSPropertyOp10
 70
     1
102
RTVSPropertyOp11
 70
     1
102
RTVSPropertyOp12
 70
     1
102
RTVSPropertyOp13
 70
     1
102
RTVSPropertyOp14
 70
     1
102
RTVSPropertyOp15
 70
     1
102
RTVSPropertyOp16
 70
     1
102
RTVSPropertyOp17
 70
     1
102
RTVSPropertyOp18
 70
     1
102
RTVSPropertyOp19
 70
     1
102
RTVSPropertyOp20
 70
     1
102
RTVSPropertyOp21
 70
     1
102
RTVSPropertyOp22
 70
     1
102
RTVSPropertyOp23
 70
     1
102
RTVSPropertyOp24
 70
     1
102
RTVSPropertyOp25
 70
     1
102
RTVSPropertyOp26
 70
     1
102
RTVSPropertyOp27
 70
     1
102
RTVSPropertyOp28
 70
     1
102
RTVSPropertyOp29
 70
     1
102
RTVSPropertyOp30
 70
     1
102
RTVSPropertyOp31
 70
     1
102
RTVSPropertyOp32
 70
     1
102
RTVSPropertyOp33
 70
     1
102
RTVSPropertyOp34
 70
     1
102
RTVSPropertyOp35
 70
     1
102
RTVSPropertyOp36
 70
     1
102
RTVSPropertyOp37
 70
     1
102
RTVSPropertyOp38
 70
     1
102
RTVSPropertyOp39
 70
     1
102
RTVSPropertyOp40
 70
     1
102
RTVSPropertyOp41
 70
     1
102
RTVSPropertyOp42
 70
     1
102
RTVSPropertyOp43
 70
     1
102
RTVSPropertyOp44
 70
     1
102
RTVSPropertyOp45
 70
     1
102
RTVSPropertyOp46
 70
     1
102
RTVSPropertyOp47
 70
     1
102
RTVSPropertyOp48
 70
     1
102
RTVSPropertyOp49
 70
     1
102
RTVSPropertyOp50
 70
     1
102
RTVSPropertyOp51
 70
     0
102
RTVSPropertyOp52
 70
     0
102
RTVSPropertyOp53
 70
     1
102
RTVSPropertyOp54
 70
     1
102
RTVSPropertyOp55
 70
     1
102
RTVSPropertyOp56
 70
     1
102
RTVSPropertyOp57
 70
     1
102
RTVSPropertyOp58
 70
     1
102
RTVSPropertyOp59
 70
     1
102
RTVSPropertyOp60
 70
     1
102
RTVSPropertyOp61
 70
     1
102
RTVSPropertyOp62
 70
     1
  0
XRECORD
  5
1295D
102
{ACAD_REACTORS
330
1295C
102
}
330
1295C
100
AcDbXrecord
280
     1
102
RTVSPost2010Prop28
280
     0
102
RTVSPost2010PropOp28
 70
     1
102
RTVSPost2010Prop29
280
     1
102
RTVSPost2010PropOp29
 70
     1
102
RTVSPost2010Prop30
280
     1
102
RTVSPost2010PropOp30
 70
     1
102
RTVSPost2010Prop31
280
     0
102
RTVSPost2010PropOp31
 70
     1
102
RTVSPost2010Prop32
280
     0
102
RTVSPost2010PropOp32
 70
     1
102
RTVSPost2010Prop33
280
     0
102
RTVSPost2010PropOp33
 70
     1
102
RTVSPost2010Prop34
280
     0
102
RTVSPost2010PropOp34
 70
     1
102
RTVSPost2010Prop35
280
     0
102
RTVSPost2010PropOp35
 70
     1
102
RTVSPost2010Prop36
280
     0
102
RTVSPost2010PropOp36
 70
     1
102
RTVSPost2010Prop37
 90
       50
102
RTVSPost2010PropOp37
 70
     1
102
RTVSPost2010Prop38
140
0.0
102
RTVSPost2010PropOp38
 70
     1
102
RTVSPost2010Prop39
140
1.0
102
RTVSPost2010PropOp39
 70
     1
102
RTVSPost2010Prop40
 90
        0
102
RTVSPost2010PropOp40
 70
     1
102
RTVSPost2010Prop41ColorIndex
 90
       18
102
RTVSPost2010Prop41ColorRGB
 90
        0
102
RTVSPost2010PropOp41
 70
     1
102
RTVSPost2010Prop42
 90
       50
102
RTVSPost2010PropOp42
 70
     1
102
RTVSPost2010Prop43
 90
        3
102
RTVSPost2010PropOp43
 70
     1
102
RTVSPost2010Prop44ColorIndex
 90
        5
102
RTVSPost2010Prop44ColorRGB
 90
      255
102
RTVSPost2010PropOp44
 70
     1
102
RTVSPost2010Prop45
280
     0
102
RTVSPost2010PropOp45
 70
     1
102
RTVSPost2010Prop46
 90
       50
102
RTVSPost2010PropOp46
 70
     1
102
RTVSPost2010Prop47
 90
       50
102
RTVSPost2010PropOp47
 70
     1
102
RTVSPost2010Prop48
 90
       50
102
RTVSPost2010PropOp48
 70
     1
102
RTVSPost2010Prop49
280
     0
102
RTVSPost2010PropOp49
 70
     1
102
RTVSPost2010Prop50
 90
       50
102
RTVSPost2010PropOp50
 70
     1
102
RTVSPost2010Prop51ColorIndex
 90
      256
102
RTVSPost2010Prop51ColorRGB
 90
-16777216
102
RTVSPost2010PropOp51
 70
     0
102
RTVSPost2010Prop52
140
1.0
102
RTVSPost2010PropOp52
 70
     0
102
RTVSPost2010Prop53
 90
        2
102
RTVSPost2010PropOp53
 70
     1
102
RTVSPost2010Prop54
  1
strokes_ogs.tif
102
RTVSPost2010PropOp54
 70
     1
102
RTVSPost2010Prop55
280
     0
102
RTVSPost2010PropOp55
 70
     1
102
RTVSPost2010Prop56
140
1.0
102
RTVSPost2010PropOp56
 70
     1
102
RTVSPost2010Prop57
140
1.0
102
RTVSPost2010PropOp57
 70
     1
102
RTVSPropertyOp0
 70
     1
102
RTVSPropertyOp1
 70
     1
102
RTVSPropertyOp2
 70
     1
102
RTVSPropertyOp3
 70
     1
102
RTVSPropertyOp4
 70
     1
102
RTVSPropertyOp5
 70
     1
102
RTVSPropertyOp6
 70
     1
102
RTVSPropertyOp7
 70
     1
102
RTVSPropertyOp8
 70
     1
102
RTVSPropertyOp9
 70
     1
102
RTVSPropertyOp10
 70
     1
102
RTVSPropertyOp11
 70
     1
102
RTVSPropertyOp12
 70
     1
102
RTVSPropertyOp13
 70
     1
102
RTVSPropertyOp14
 70
     1
102
RTVSPropertyOp15
 70
     1
102
RTVSPropertyOp16
 70
     1
102
RTVSPropertyOp17
 70
     1
102
RTVSPropertyOp18
 70
     1
102
RTVSPropertyOp19
 70
     1
102
RTVSPropertyOp20
 70
     1
102
RTVSPropertyOp21
 70
     1
102
RTVSPropertyOp22
 70
     1
102
RTVSPropertyOp23
 70
     1
102
RTVSPropertyOp24
 70
     1
102
RTVSPropertyOp25
 70
     1
102
RTVSPropertyOp26
 70
     1
102
RTVSPropertyOp27
 70
     1
102
RTVSPropertyOp28
 70
     1
102
RTVSPropertyOp29
 70
     1
102
RTVSPropertyOp30
 70
     1
102
RTVSPropertyOp31
 70
     1
102
RTVSPropertyOp32
 70
     1
102
RTVSPropertyOp33
 70
     1
102
RTVSPropertyOp34
 70
     1
102
RTVSPropertyOp35
 70
     1
102
RTVSPropertyOp36
 70
     1
102
RTVSPropertyOp37
 70
     1
102
RTVSPropertyOp38
 70
     1
102
RTVSPropertyOp39
 70
     1
102
RTVSPropertyOp40
 70
     1
102
RTVSPropertyOp41
 70
     1
102
RTVSPropertyOp42
 70
     1
102
RTVSPropertyOp43
 70
     1
102
RTVSPropertyOp44
 70
     1
102
RTVSPropertyOp45
 70
     1
102
RTVSPropertyOp46
 70
     1
102
RTVSPropertyOp47
 70
     1
102
RTVSPropertyOp48
 70
     1
102
RTVSPropertyOp49
 70
     1
102
RTVSPropertyOp50
 70
     1
102
RTVSPropertyOp51
 70
     0
102
RTVSPropertyOp52
 70
     0
102
RTVSPropertyOp53
 70
     1
102
RTVSPropertyOp54
 70
     1
102
RTVSPropertyOp55
 70
     1
102
RTVSPropertyOp56
 70
     1
102
RTVSPropertyOp57
 70
     1
102
RTVSPropertyOp58
 70
     1
102
RTVSPropertyOp59
 70
     1
102
RTVSPropertyOp60
 70
     1
102
RTVSPropertyOp61
 70
     1
102
RTVSPropertyOp62
 70
     1
  0
XRECORD
  5
1295B
102
{ACAD_REACTORS
330
1295A
102
}
330
1295A
100
AcDbXrecord
280
     1
102
RTVSPost2010Prop28
280
     0
102
RTVSPost2010PropOp28
 70
     1
102
RTVSPost2010Prop29
280
     1
102
RTVSPost2010PropOp29
 70
     1
102
RTVSPost2010Prop30
280
     1
102
RTVSPost2010PropOp30
 70
     1
102
RTVSPost2010Prop31
280
     0
102
RTVSPost2010PropOp31
 70
     1
102
RTVSPost2010Prop32
280
     0
102
RTVSPost2010PropOp32
 70
     1
102
RTVSPost2010Prop33
280
     0
102
RTVSPost2010PropOp33
 70
     1
102
RTVSPost2010Prop34
280
     0
102
RTVSPost2010PropOp34
 70
     1
102
RTVSPost2010Prop35
280
     0
102
RTVSPost2010PropOp35
 70
     1
102
RTVSPost2010Prop36
280
     0
102
RTVSPost2010PropOp36
 70
     1
102
RTVSPost2010Prop37
 90
       50
102
RTVSPost2010PropOp37
 70
     1
102
RTVSPost2010Prop38
140
0.0
102
RTVSPost2010PropOp38
 70
     1
102
RTVSPost2010Prop39
140
1.0
102
RTVSPost2010PropOp39
 70
     1
102
RTVSPost2010Prop40
 90
        0
102
RTVSPost2010PropOp40
 70
     1
102
RTVSPost2010Prop41ColorIndex
 90
       18
102
RTVSPost2010Prop41ColorRGB
 90
        0
102
RTVSPost2010PropOp41
 70
     1
102
RTVSPost2010Prop42
 90
       50
102
RTVSPost2010PropOp42
 70
     1
102
RTVSPost2010Prop43
 90
        3
102
RTVSPost2010PropOp43
 70
     1
102
RTVSPost2010Prop44ColorIndex
 90
        5
102
RTVSPost2010Prop44ColorRGB
 90
      255
102
RTVSPost2010PropOp44
 70
     1
102
RTVSPost2010Prop45
280
     0
102
RTVSPost2010PropOp45
 70
     1
102
RTVSPost2010Prop46
 90
       50
102
RTVSPost2010PropOp46
 70
     1
102
RTVSPost2010Prop47
 90
       50
102
RTVSPost2010PropOp47
 70
     1
102
RTVSPost2010Prop48
 90
       50
102
RTVSPost2010PropOp48
 70
     1
102
RTVSPost2010Prop49
280
     0
102
RTVSPost2010PropOp49
 70
     1
102
RTVSPost2010Prop50
 90
       50
102
RTVSPost2010PropOp50
 70
     1
102
RTVSPost2010Prop51ColorIndex
 90
      256
102
RTVSPost2010Prop51ColorRGB
 90
-16777216
102
RTVSPost2010PropOp51
 70
     0
102
RTVSPost2010Prop52
140
1.0
102
RTVSPost2010PropOp52
 70
     0
102
RTVSPost2010Prop53
 90
        2
102
RTVSPost2010PropOp53
 70
     1
102
RTVSPost2010Prop54
  1
strokes_ogs.tif
102
RTVSPost2010PropOp54
 70
     1
102
RTVSPost2010Prop55
280
     0
102
RTVSPost2010PropOp55
 70
     1
102
RTVSPost2010Prop56
140
1.0
102
RTVSPost2010PropOp56
 70
     1
102
RTVSPost2010Prop57
140
1.0
102
RTVSPost2010PropOp57
 70
     1
102
RTVSPropertyOp0
 70
     1
102
RTVSPropertyOp1
 70
     1
102
RTVSPropertyOp2
 70
     1
102
RTVSPropertyOp3
 70
     1
102
RTVSPropertyOp4
 70
     1
102
RTVSPropertyOp5
 70
     1
102
RTVSPropertyOp6
 70
     1
102
RTVSPropertyOp7
 70
     1
102
RTVSPropertyOp8
 70
     1
102
RTVSPropertyOp9
 70
     1
102
RTVSPropertyOp10
 70
     1
102
RTVSPropertyOp11
 70
     1
102
RTVSPropertyOp12
 70
     1
102
RTVSPropertyOp13
 70
     1
102
RTVSPropertyOp14
 70
     1
102
RTVSPropertyOp15
 70
     1
102
RTVSPropertyOp16
 70
     1
102
RTVSPropertyOp17
 70
     1
102
RTVSPropertyOp18
 70
     1
102
RTVSPropertyOp19
 70
     1
102
RTVSPropertyOp20
 70
     1
102
RTVSPropertyOp21
 70
     1
102
RTVSPropertyOp22
 70
     1
102
RTVSPropertyOp23
 70
     1
102
RTVSPropertyOp24
 70
     1
102
RTVSPropertyOp25
 70
     1
102
RTVSPropertyOp26
 70
     1
102
RTVSPropertyOp27
 70
     1
102
RTVSPropertyOp28
 70
     1
102
RTVSPropertyOp29
 70
     1
102
RTVSPropertyOp30
 70
     1
102
RTVSPropertyOp31
 70
     1
102
RTVSPropertyOp32
 70
     1
102
RTVSPropertyOp33
 70
     1
102
RTVSPropertyOp34
 70
     1
102
RTVSPropertyOp35
 70
     1
102
RTVSPropertyOp36
 70
     1
102
RTVSPropertyOp37
 70
     1
102
RTVSPropertyOp38
 70
     1
102
RTVSPropertyOp39
 70
     1
102
RTVSPropertyOp40
 70
     1
102
RTVSPropertyOp41
 70
     1
102
RTVSPropertyOp42
 70
     1
102
RTVSPropertyOp43
 70
     1
102
RTVSPropertyOp44
 70
     1
102
RTVSPropertyOp45
 70
     1
102
RTVSPropertyOp46
 70
     1
102
RTVSPropertyOp47
 70
     1
102
RTVSPropertyOp48
 70
     1
102
RTVSPropertyOp49
 70
     1
102
RTVSPropertyOp50
 70
     1
102
RTVSPropertyOp51
 70
     0
102
RTVSPropertyOp52
 70
     0
102
RTVSPropertyOp53
 70
     1
102
RTVSPropertyOp54
 70
     1
102
RTVSPropertyOp55
 70
     1
102
RTVSPropertyOp56
 70
     1
102
RTVSPropertyOp57
 70
     1
102
RTVSPropertyOp58
 70
     1
102
RTVSPropertyOp59
 70
     1
102
RTVSPropertyOp60
 70
     1
102
RTVSPropertyOp61
 70
     1
102
RTVSPropertyOp62
 70
     1
  0
XRECORD
  5
12955
102
{ACAD_REACTORS
330
12954
102
}
330
12954
100
AcDbXrecord
280
     1
102
RTVSPost2010Prop28
280
     0
102
RTVSPost2010PropOp28
 70
     1
102
RTVSPost2010Prop29
280
     1
102
RTVSPost2010PropOp29
 70
     1
102
RTVSPost2010Prop30
280
     1
102
RTVSPost2010PropOp30
 70
     1
102
RTVSPost2010Prop31
280
     0
102
RTVSPost2010PropOp31
 70
     1
102
RTVSPost2010Prop32
280
     0
102
RTVSPost2010PropOp32
 70
     1
102
RTVSPost2010Prop33
280
     0
102
RTVSPost2010PropOp33
 70
     1
102
RTVSPost2010Prop34
280
     0
102
RTVSPost2010PropOp34
 70
     1
102
RTVSPost2010Prop35
280
     0
102
RTVSPost2010PropOp35
 70
     1
102
RTVSPost2010Prop36
280
     0
102
RTVSPost2010PropOp36
 70
     1
102
RTVSPost2010Prop37
 90
       50
102
RTVSPost2010PropOp37
 70
     1
102
RTVSPost2010Prop38
140
0.0
102
RTVSPost2010PropOp38
 70
     1
102
RTVSPost2010Prop39
140
1.0
102
RTVSPost2010PropOp39
 70
     1
102
RTVSPost2010Prop40
 90
        0
102
RTVSPost2010PropOp40
 70
     1
102
RTVSPost2010Prop41ColorIndex
 90
       18
102
RTVSPost2010Prop41ColorRGB
 90
        0
102
RTVSPost2010PropOp41
 70
     1
102
RTVSPost2010Prop42
 90
       50
102
RTVSPost2010PropOp42
 70
     1
102
RTVSPost2010Prop43
 90
        3
102
RTVSPost2010PropOp43
 70
     1
102
RTVSPost2010Prop44ColorIndex
 90
        5
102
RTVSPost2010Prop44ColorRGB
 90
      255
102
RTVSPost2010PropOp44
 70
     1
102
RTVSPost2010Prop45
280
     0
102
RTVSPost2010PropOp45
 70
     1
102
RTVSPost2010Prop46
 90
       50
102
RTVSPost2010PropOp46
 70
     1
102
RTVSPost2010Prop47
 90
       50
102
RTVSPost2010PropOp47
 70
     1
102
RTVSPost2010Prop48
 90
       50
102
RTVSPost2010PropOp48
 70
     1
102
RTVSPost2010Prop49
280
     0
102
RTVSPost2010PropOp49
 70
     1
102
RTVSPost2010Prop50
 90
       50
102
RTVSPost2010PropOp50
 70
     1
102
RTVSPost2010Prop51ColorIndex
 90
      256
102
RTVSPost2010Prop51ColorRGB
 90
-16777216
102
RTVSPost2010PropOp51
 70
     0
102
RTVSPost2010Prop52
140
1.0
102
RTVSPost2010PropOp52
 70
     0
102
RTVSPost2010Prop53
 90
        2
102
RTVSPost2010PropOp53
 70
     1
102
RTVSPost2010Prop54
  1
strokes_ogs.tif
102
RTVSPost2010PropOp54
 70
     1
102
RTVSPost2010Prop55
280
     0
102
RTVSPost2010PropOp55
 70
     1
102
RTVSPost2010Prop56
140
1.0
102
RTVSPost2010PropOp56
 70
     1
102
RTVSPost2010Prop57
140
1.0
102
RTVSPost2010PropOp57
 70
     1
102
RTVSPropertyOp0
 70
     1
102
RTVSPropertyOp1
 70
     1
102
RTVSPropertyOp2
 70
     1
102
RTVSPropertyOp3
 70
     1
102
RTVSPropertyOp4
 70
     1
102
RTVSPropertyOp5
 70
     1
102
RTVSPropertyOp6
 70
     1
102
RTVSPropertyOp7
 70
     1
102
RTVSPropertyOp8
 70
     1
102
RTVSPropertyOp9
 70
     1
102
RTVSPropertyOp10
 70
     1
102
RTVSPropertyOp11
 70
     1
102
RTVSPropertyOp12
 70
     1
102
RTVSPropertyOp13
 70
     1
102
RTVSPropertyOp14
 70
     1
102
RTVSPropertyOp15
 70
     1
102
RTVSPropertyOp16
 70
     1
102
RTVSPropertyOp17
 70
     1
102
RTVSPropertyOp18
 70
     1
102
RTVSPropertyOp19
 70
     1
102
RTVSPropertyOp20
 70
     1
102
RTVSPropertyOp21
 70
     1
102
RTVSPropertyOp22
 70
     1
102
RTVSPropertyOp23
 70
     1
102
RTVSPropertyOp24
 70
     1
102
RTVSPropertyOp25
 70
     1
102
RTVSPropertyOp26
 70
     1
102
RTVSPropertyOp27
 70
     1
102
RTVSPropertyOp28
 70
     1
102
RTVSPropertyOp29
 70
     1
102
RTVSPropertyOp30
 70
     1
102
RTVSPropertyOp31
 70
     1
102
RTVSPropertyOp32
 70
     1
102
RTVSPropertyOp33
 70
     1
102
RTVSPropertyOp34
 70
     1
102
RTVSPropertyOp35
 70
     1
102
RTVSPropertyOp36
 70
     1
102
RTVSPropertyOp37
 70
     1
102
RTVSPropertyOp38
 70
     1
102
RTVSPropertyOp39
 70
     1
102
RTVSPropertyOp40
 70
     1
102
RTVSPropertyOp41
 70
     1
102
RTVSPropertyOp42
 70
     1
102
RTVSPropertyOp43
 70
     1
102
RTVSPropertyOp44
 70
     1
102
RTVSPropertyOp45
 70
     1
102
RTVSPropertyOp46
 70
     1
102
RTVSPropertyOp47
 70
     1
102
RTVSPropertyOp48
 70
     1
102
RTVSPropertyOp49
 70
     1
102
RTVSPropertyOp50
 70
     1
102
RTVSPropertyOp51
 70
     0
102
RTVSPropertyOp52
 70
     0
102
RTVSPropertyOp53
 70
     1
102
RTVSPropertyOp54
 70
     1
102
RTVSPropertyOp55
 70
     1
102
RTVSPropertyOp56
 70
     1
102
RTVSPropertyOp57
 70
     1
102
RTVSPropertyOp58
 70
     1
102
RTVSPropertyOp59
 70
     1
102
RTVSPropertyOp60
 70
     1
102
RTVSPropertyOp61
 70
     1
102
RTVSPropertyOp62
 70
     1
  0
XRECORD
  5
12957
102
{ACAD_REACTORS
330
12956
102
}
330
12956
100
AcDbXrecord
280
     1
102
RTVSPost2010Prop28
280
     0
102
RTVSPost2010PropOp28
 70
     1
102
RTVSPost2010Prop29
280
     1
102
RTVSPost2010PropOp29
 70
     1
102
RTVSPost2010Prop30
280
     1
102
RTVSPost2010PropOp30
 70
     1
102
RTVSPost2010Prop31
280
     0
102
RTVSPost2010PropOp31
 70
     1
102
RTVSPost2010Prop32
280
     0
102
RTVSPost2010PropOp32
 70
     1
102
RTVSPost2010Prop33
280
     0
102
RTVSPost2010PropOp33
 70
     1
102
RTVSPost2010Prop34
280
     0
102
RTVSPost2010PropOp34
 70
     1
102
RTVSPost2010Prop35
280
     0
102
RTVSPost2010PropOp35
 70
     1
102
RTVSPost2010Prop36
280
     0
102
RTVSPost2010PropOp36
 70
     1
102
RTVSPost2010Prop37
 90
       50
102
RTVSPost2010PropOp37
 70
     1
102
RTVSPost2010Prop38
140
0.0
102
RTVSPost2010PropOp38
 70
     1
102
RTVSPost2010Prop39
140
1.0
102
RTVSPost2010PropOp39
 70
     1
102
RTVSPost2010Prop40
 90
        0
102
RTVSPost2010PropOp40
 70
     1
102
RTVSPost2010Prop41ColorIndex
 90
       18
102
RTVSPost2010Prop41ColorRGB
 90
        0
102
RTVSPost2010PropOp41
 70
     1
102
RTVSPost2010Prop42
 90
       50
102
RTVSPost2010PropOp42
 70
     1
102
RTVSPost2010Prop43
 90
        3
102
RTVSPost2010PropOp43
 70
     1
102
RTVSPost2010Prop44ColorIndex
 90
        5
102
RTVSPost2010Prop44ColorRGB
 90
      255
102
RTVSPost2010PropOp44
 70
     1
102
RTVSPost2010Prop45
280
     0
102
RTVSPost2010PropOp45
 70
     1
102
RTVSPost2010Prop46
 90
       50
102
RTVSPost2010PropOp46
 70
     1
102
RTVSPost2010Prop47
 90
       50
102
RTVSPost2010PropOp47
 70
     1
102
RTVSPost2010Prop48
 90
       50
102
RTVSPost2010PropOp48
 70
     1
102
RTVSPost2010Prop49
280
     0
102
RTVSPost2010PropOp49
 70
     1
102
RTVSPost2010Prop50
 90
       50
102
RTVSPost2010PropOp50
 70
     1
102
RTVSPost2010Prop51ColorIndex
 90
      256
102
RTVSPost2010Prop51ColorRGB
 90
-16777216
102
RTVSPost2010PropOp51
 70
     0
102
RTVSPost2010Prop52
140
1.0
102
RTVSPost2010PropOp52
 70
     0
102
RTVSPost2010Prop53
 90
        2
102
RTVSPost2010PropOp53
 70
     1
102
RTVSPost2010Prop54
  1
strokes_ogs.tif
102
RTVSPost2010PropOp54
 70
     1
102
RTVSPost2010Prop55
280
     0
102
RTVSPost2010PropOp55
 70
     1
102
RTVSPost2010Prop56
140
1.0
102
RTVSPost2010PropOp56
 70
     1
102
RTVSPost2010Prop57
140
1.0
102
RTVSPost2010PropOp57
 70
     1
102
RTVSPropertyOp0
 70
     1
102
RTVSPropertyOp1
 70
     1
102
RTVSPropertyOp2
 70
     1
102
RTVSPropertyOp3
 70
     1
102
RTVSPropertyOp4
 70
     1
102
RTVSPropertyOp5
 70
     1
102
RTVSPropertyOp6
 70
     1
102
RTVSPropertyOp7
 70
     1
102
RTVSPropertyOp8
 70
     1
102
RTVSPropertyOp9
 70
     1
102
RTVSPropertyOp10
 70
     1
102
RTVSPropertyOp11
 70
     1
102
RTVSPropertyOp12
 70
     1
102
RTVSPropertyOp13
 70
     1
102
RTVSPropertyOp14
 70
     1
102
RTVSPropertyOp15
 70
     1
102
RTVSPropertyOp16
 70
     1
102
RTVSPropertyOp17
 70
     1
102
RTVSPropertyOp18
 70
     1
102
RTVSPropertyOp19
 70
     1
102
RTVSPropertyOp20
 70
     1
102
RTVSPropertyOp21
 70
     1
102
RTVSPropertyOp22
 70
     1
102
RTVSPropertyOp23
 70
     1
102
RTVSPropertyOp24
 70
     1
102
RTVSPropertyOp25
 70
     1
102
RTVSPropertyOp26
 70
     1
102
RTVSPropertyOp27
 70
     1
102
RTVSPropertyOp28
 70
     1
102
RTVSPropertyOp29
 70
     1
102
RTVSPropertyOp30
 70
     1
102
RTVSPropertyOp31
 70
     1
102
RTVSPropertyOp32
 70
     1
102
RTVSPropertyOp33
 70
     1
102
RTVSPropertyOp34
 70
     1
102
RTVSPropertyOp35
 70
     1
102
RTVSPropertyOp36
 70
     1
102
RTVSPropertyOp37
 70
     1
102
RTVSPropertyOp38
 70
     1
102
RTVSPropertyOp39
 70
     1
102
RTVSPropertyOp40
 70
     1
102
RTVSPropertyOp41
 70
     1
102
RTVSPropertyOp42
 70
     1
102
RTVSPropertyOp43
 70
     1
102
RTVSPropertyOp44
 70
     1
102
RTVSPropertyOp45
 70
     1
102
RTVSPropertyOp46
 70
     1
102
RTVSPropertyOp47
 70
     1
102
RTVSPropertyOp48
 70
     1
102
RTVSPropertyOp49
 70
     1
102
RTVSPropertyOp50
 70
     1
102
RTVSPropertyOp51
 70
     0
102
RTVSPropertyOp52
 70
     0
102
RTVSPropertyOp53
 70
     1
102
RTVSPropertyOp54
 70
     1
102
RTVSPropertyOp55
 70
     1
102
RTVSPropertyOp56
 70
     1
102
RTVSPropertyOp57
 70
     1
102
RTVSPropertyOp58
 70
     1
102
RTVSPropertyOp59
 70
     1
102
RTVSPropertyOp60
 70
     1
102
RTVSPropertyOp61
 70
     1
102
RTVSPropertyOp62
 70
     1
  0
XRECORD
  5
12946
102
{ACAD_REACTORS
330
12945
102
}
330
12945
100
AcDbXrecord
280
     1
102
RTVSPost2010Prop28
280
     0
102
RTVSPost2010PropOp28
 70
     1
102
RTVSPost2010Prop29
280
     1
102
RTVSPost2010PropOp29
 70
     1
102
RTVSPost2010Prop30
280
     1
102
RTVSPost2010PropOp30
 70
     1
102
RTVSPost2010Prop31
280
     0
102
RTVSPost2010PropOp31
 70
     1
102
RTVSPost2010Prop32
280
     0
102
RTVSPost2010PropOp32
 70
     1
102
RTVSPost2010Prop33
280
     0
102
RTVSPost2010PropOp33
 70
     1
102
RTVSPost2010Prop34
280
     0
102
RTVSPost2010PropOp34
 70
     1
102
RTVSPost2010Prop35
280
     0
102
RTVSPost2010PropOp35
 70
     1
102
RTVSPost2010Prop36
280
     0
102
RTVSPost2010PropOp36
 70
     1
102
RTVSPost2010Prop37
 90
       50
102
RTVSPost2010PropOp37
 70
     1
102
RTVSPost2010Prop38
140
0.0
102
RTVSPost2010PropOp38
 70
     1
102
RTVSPost2010Prop39
140
1.0
102
RTVSPost2010PropOp39
 70
     1
102
RTVSPost2010Prop40
 90
        0
102
RTVSPost2010PropOp40
 70
     1
102
RTVSPost2010Prop41ColorIndex
 90
       18
102
RTVSPost2010Prop41ColorRGB
 90
        0
102
RTVSPost2010PropOp41
 70
     1
102
RTVSPost2010Prop42
 90
       50
102
RTVSPost2010PropOp42
 70
     1
102
RTVSPost2010Prop43
 90
        3
102
RTVSPost2010PropOp43
 70
     1
102
RTVSPost2010Prop44ColorIndex
 90
        5
102
RTVSPost2010Prop44ColorRGB
 90
      255
102
RTVSPost2010PropOp44
 70
     1
102
RTVSPost2010Prop45
280
     0
102
RTVSPost2010PropOp45
 70
     1
102
RTVSPost2010Prop46
 90
       50
102
RTVSPost2010PropOp46
 70
     1
102
RTVSPost2010Prop47
 90
       50
102
RTVSPost2010PropOp47
 70
     1
102
RTVSPost2010Prop48
 90
       50
102
RTVSPost2010PropOp48
 70
     1
102
RTVSPost2010Prop49
280
     0
102
RTVSPost2010PropOp49
 70
     1
102
RTVSPost2010Prop50
 90
       50
102
RTVSPost2010PropOp50
 70
     1
102
RTVSPost2010Prop51ColorIndex
 90
      256
102
RTVSPost2010Prop51ColorRGB
 90
-16777216
102
RTVSPost2010PropOp51
 70
     0
102
RTVSPost2010Prop52
140
1.0
102
RTVSPost2010PropOp52
 70
     0
102
RTVSPost2010Prop53
 90
        2
102
RTVSPost2010PropOp53
 70
     1
102
RTVSPost2010Prop54
  1
strokes_ogs.tif
102
RTVSPost2010PropOp54
 70
     1
102
RTVSPost2010Prop55
280
     0
102
RTVSPost2010PropOp55
 70
     1
102
RTVSPost2010Prop56
140
1.0
102
RTVSPost2010PropOp56
 70
     1
102
RTVSPost2010Prop57
140
1.0
102
RTVSPost2010PropOp57
 70
     1
102
RTVSPropertyOp0
 70
     1
102
RTVSPropertyOp1
 70
     1
102
RTVSPropertyOp2
 70
     1
102
RTVSPropertyOp3
 70
     1
102
RTVSPropertyOp4
 70
     1
102
RTVSPropertyOp5
 70
     1
102
RTVSPropertyOp6
 70
     1
102
RTVSPropertyOp7
 70
     1
102
RTVSPropertyOp8
 70
     1
102
RTVSPropertyOp9
 70
     1
102
RTVSPropertyOp10
 70
     1
102
RTVSPropertyOp11
 70
     1
102
RTVSPropertyOp12
 70
     1
102
RTVSPropertyOp13
 70
     1
102
RTVSPropertyOp14
 70
     1
102
RTVSPropertyOp15
 70
     1
102
RTVSPropertyOp16
 70
     1
102
RTVSPropertyOp17
 70
     1
102
RTVSPropertyOp18
 70
     1
102
RTVSPropertyOp19
 70
     1
102
RTVSPropertyOp20
 70
     1
102
RTVSPropertyOp21
 70
     1
102
RTVSPropertyOp22
 70
     1
102
RTVSPropertyOp23
 70
     1
102
RTVSPropertyOp24
 70
     1
102
RTVSPropertyOp25
 70
     1
102
RTVSPropertyOp26
 70
     1
102
RTVSPropertyOp27
 70
     1
102
RTVSPropertyOp28
 70
     1
102
RTVSPropertyOp29
 70
     1
102
RTVSPropertyOp30
 70
     1
102
RTVSPropertyOp31
 70
     1
102
RTVSPropertyOp32
 70
     1
102
RTVSPropertyOp33
 70
     1
102
RTVSPropertyOp34
 70
     1
102
RTVSPropertyOp35
 70
     1
102
RTVSPropertyOp36
 70
     1
102
RTVSPropertyOp37
 70
     1
102
RTVSPropertyOp38
 70
     1
102
RTVSPropertyOp39
 70
     1
102
RTVSPropertyOp40
 70
     1
102
RTVSPropertyOp41
 70
     1
102
RTVSPropertyOp42
 70
     1
102
RTVSPropertyOp43
 70
     1
102
RTVSPropertyOp44
 70
     1
102
RTVSPropertyOp45
 70
     1
102
RTVSPropertyOp46
 70
     1
102
RTVSPropertyOp47
 70
     1
102
RTVSPropertyOp48
 70
     1
102
RTVSPropertyOp49
 70
     1
102
RTVSPropertyOp50
 70
     1
102
RTVSPropertyOp51
 70
     0
102
RTVSPropertyOp52
 70
     0
102
RTVSPropertyOp53
 70
     1
102
RTVSPropertyOp54
 70
     1
102
RTVSPropertyOp55
 70
     1
102
RTVSPropertyOp56
 70
     1
102
RTVSPropertyOp57
 70
     1
102
RTVSPropertyOp58
 70
     1
102
RTVSPropertyOp59
 70
     1
102
RTVSPropertyOp60
 70
     1
102
RTVSPropertyOp61
 70
     1
102
RTVSPropertyOp62
 70
     1
  0
XRECORD
  5
1293A
102
{ACAD_REACTORS
330
12939
102
}
330
12939
100
AcDbXrecord
280
     1
102
RTVSPost2010Prop28
280
     0
102
RTVSPost2010PropOp28
 70
     1
102
RTVSPost2010Prop29
280
     1
102
RTVSPost2010PropOp29
 70
     1
102
RTVSPost2010Prop30
280
     1
102
RTVSPost2010PropOp30
 70
     1
102
RTVSPost2010Prop31
280
     0
102
RTVSPost2010PropOp31
 70
     1
102
RTVSPost2010Prop32
280
     0
102
RTVSPost2010PropOp32
 70
     1
102
RTVSPost2010Prop33
280
     0
102
RTVSPost2010PropOp33
 70
     1
102
RTVSPost2010Prop34
280
     0
102
RTVSPost2010PropOp34
 70
     1
102
RTVSPost2010Prop35
280
     0
102
RTVSPost2010PropOp35
 70
     1
102
RTVSPost2010Prop36
280
     0
102
RTVSPost2010PropOp36
 70
     1
102
RTVSPost2010Prop37
 90
       50
102
RTVSPost2010PropOp37
 70
     1
102
RTVSPost2010Prop38
140
0.0
102
RTVSPost2010PropOp38
 70
     1
102
RTVSPost2010Prop39
140
1.0
102
RTVSPost2010PropOp39
 70
     1
102
RTVSPost2010Prop40
 90
        0
102
RTVSPost2010PropOp40
 70
     1
102
RTVSPost2010Prop41ColorIndex
 90
       18
102
RTVSPost2010Prop41ColorRGB
 90
        0
102
RTVSPost2010PropOp41
 70
     1
102
RTVSPost2010Prop42
 90
       50
102
RTVSPost2010PropOp42
 70
     1
102
RTVSPost2010Prop43
 90
        3
102
RTVSPost2010PropOp43
 70
     1
102
RTVSPost2010Prop44ColorIndex
 90
        5
102
RTVSPost2010Prop44ColorRGB
 90
      255
102
RTVSPost2010PropOp44
 70
     1
102
RTVSPost2010Prop45
280
     0
102
RTVSPost2010PropOp45
 70
     1
102
RTVSPost2010Prop46
 90
       50
102
RTVSPost2010PropOp46
 70
     1
102
RTVSPost2010Prop47
 90
       50
102
RTVSPost2010PropOp47
 70
     1
102
RTVSPost2010Prop48
 90
       50
102
RTVSPost2010PropOp48
 70
     1
102
RTVSPost2010Prop49
280
     0
102
RTVSPost2010PropOp49
 70
     1
102
RTVSPost2010Prop50
 90
       50
102
RTVSPost2010PropOp50
 70
     1
102
RTVSPost2010Prop51ColorIndex
 90
      256
102
RTVSPost2010Prop51ColorRGB
 90
-16777216
102
RTVSPost2010PropOp51
 70
     0
102
RTVSPost2010Prop52
140
1.0
102
RTVSPost2010PropOp52
 70
     0
102
RTVSPost2010Prop53
 90
        2
102
RTVSPost2010PropOp53
 70
     1
102
RTVSPost2010Prop54
  1
strokes_ogs.tif
102
RTVSPost2010PropOp54
 70
     1
102
RTVSPost2010Prop55
280
     0
102
RTVSPost2010PropOp55
 70
     1
102
RTVSPost2010Prop56
140
1.0
102
RTVSPost2010PropOp56
 70
     1
102
RTVSPost2010Prop57
140
1.0
102
RTVSPost2010PropOp57
 70
     1
102
RTVSPropertyOp0
 70
     1
102
RTVSPropertyOp1
 70
     1
102
RTVSPropertyOp2
 70
     1
102
RTVSPropertyOp3
 70
     1
102
RTVSPropertyOp4
 70
     1
102
RTVSPropertyOp5
 70
     1
102
RTVSPropertyOp6
 70
     1
102
RTVSPropertyOp7
 70
     1
102
RTVSPropertyOp8
 70
     1
102
RTVSPropertyOp9
 70
     1
102
RTVSPropertyOp10
 70
     1
102
RTVSPropertyOp11
 70
     1
102
RTVSPropertyOp12
 70
     1
102
RTVSPropertyOp13
 70
     1
102
RTVSPropertyOp14
 70
     1
102
RTVSPropertyOp15
 70
     1
102
RTVSPropertyOp16
 70
     1
102
RTVSPropertyOp17
 70
     1
102
RTVSPropertyOp18
 70
     1
102
RTVSPropertyOp19
 70
     1
102
RTVSPropertyOp20
 70
     1
102
RTVSPropertyOp21
 70
     1
102
RTVSPropertyOp22
 70
     1
102
RTVSPropertyOp23
 70
     1
102
RTVSPropertyOp24
 70
     1
102
RTVSPropertyOp25
 70
     1
102
RTVSPropertyOp26
 70
     1
102
RTVSPropertyOp27
 70
     1
102
RTVSPropertyOp28
 70
     1
102
RTVSPropertyOp29
 70
     1
102
RTVSPropertyOp30
 70
     1
102
RTVSPropertyOp31
 70
     1
102
RTVSPropertyOp32
 70
     1
102
RTVSPropertyOp33
 70
     1
102
RTVSPropertyOp34
 70
     1
102
RTVSPropertyOp35
 70
     1
102
RTVSPropertyOp36
 70
     1
102
RTVSPropertyOp37
 70
     1
102
RTVSPropertyOp38
 70
     1
102
RTVSPropertyOp39
 70
     1
102
RTVSPropertyOp40
 70
     1
102
RTVSPropertyOp41
 70
     1
102
RTVSPropertyOp42
 70
     1
102
RTVSPropertyOp43
 70
     1
102
RTVSPropertyOp44
 70
     1
102
RTVSPropertyOp45
 70
     1
102
RTVSPropertyOp46
 70
     1
102
RTVSPropertyOp47
 70
     1
102
RTVSPropertyOp48
 70
     1
102
RTVSPropertyOp49
 70
     1
102
RTVSPropertyOp50
 70
     1
102
RTVSPropertyOp51
 70
     0
102
RTVSPropertyOp52
 70
     0
102
RTVSPropertyOp53
 70
     1
102
RTVSPropertyOp54
 70
     1
102
RTVSPropertyOp55
 70
     1
102
RTVSPropertyOp56
 70
     1
102
RTVSPropertyOp57
 70
     1
102
RTVSPropertyOp58
 70
     1
102
RTVSPropertyOp59
 70
     1
102
RTVSPropertyOp60
 70
     1
102
RTVSPropertyOp61
 70
     1
102
RTVSPropertyOp62
 70
     1
  0
XRECORD
  5
12959
102
{ACAD_REACTORS
330
12958
102
}
330
12958
100
AcDbXrecord
280
     1
102
RTVSPost2010Prop28
280
     0
102
RTVSPost2010PropOp28
 70
     1
102
RTVSPost2010Prop29
280
     1
102
RTVSPost2010PropOp29
 70
     1
102
RTVSPost2010Prop30
280
     1
102
RTVSPost2010PropOp30
 70
     1
102
RTVSPost2010Prop31
280
     0
102
RTVSPost2010PropOp31
 70
     1
102
RTVSPost2010Prop32
280
     0
102
RTVSPost2010PropOp32
 70
     1
102
RTVSPost2010Prop33
280
     0
102
RTVSPost2010PropOp33
 70
     1
102
RTVSPost2010Prop34
280
     0
102
RTVSPost2010PropOp34
 70
     1
102
RTVSPost2010Prop35
280
     0
102
RTVSPost2010PropOp35
 70
     1
102
RTVSPost2010Prop36
280
     0
102
RTVSPost2010PropOp36
 70
     1
102
RTVSPost2010Prop37
 90
       50
102
RTVSPost2010PropOp37
 70
     1
102
RTVSPost2010Prop38
140
0.0
102
RTVSPost2010PropOp38
 70
     1
102
RTVSPost2010Prop39
140
1.0
102
RTVSPost2010PropOp39
 70
     1
102
RTVSPost2010Prop40
 90
        0
102
RTVSPost2010PropOp40
 70
     1
102
RTVSPost2010Prop41ColorIndex
 90
       18
102
RTVSPost2010Prop41ColorRGB
 90
        0
102
RTVSPost2010PropOp41
 70
     1
102
RTVSPost2010Prop42
 90
       50
102
RTVSPost2010PropOp42
 70
     1
102
RTVSPost2010Prop43
 90
        3
102
RTVSPost2010PropOp43
 70
     1
102
RTVSPost2010Prop44ColorIndex
 90
        5
102
RTVSPost2010Prop44ColorRGB
 90
      255
102
RTVSPost2010PropOp44
 70
     1
102
RTVSPost2010Prop45
280
     0
102
RTVSPost2010PropOp45
 70
     1
102
RTVSPost2010Prop46
 90
       50
102
RTVSPost2010PropOp46
 70
     1
102
RTVSPost2010Prop47
 90
       50
102
RTVSPost2010PropOp47
 70
     1
102
RTVSPost2010Prop48
 90
       50
102
RTVSPost2010PropOp48
 70
     1
102
RTVSPost2010Prop49
280
     0
102
RTVSPost2010PropOp49
 70
     1
102
RTVSPost2010Prop50
 90
       50
102
RTVSPost2010PropOp50
 70
     1
102
RTVSPost2010Prop51ColorIndex
 90
      256
102
RTVSPost2010Prop51ColorRGB
 90
-16777216
102
RTVSPost2010PropOp51
 70
     0
102
RTVSPost2010Prop52
140
1.0
102
RTVSPost2010PropOp52
 70
     0
102
RTVSPost2010Prop53
 90
        2
102
RTVSPost2010PropOp53
 70
     1
102
RTVSPost2010Prop54
  1
strokes_ogs.tif
102
RTVSPost2010PropOp54
 70
     1
102
RTVSPost2010Prop55
280
     0
102
RTVSPost2010PropOp55
 70
     1
102
RTVSPost2010Prop56
140
1.0
102
RTVSPost2010PropOp56
 70
     1
102
RTVSPost2010Prop57
140
1.0
102
RTVSPost2010PropOp57
 70
     1
102
RTVSPropertyOp0
 70
     1
102
RTVSPropertyOp1
 70
     1
102
RTVSPropertyOp2
 70
     1
102
RTVSPropertyOp3
 70
     1
102
RTVSPropertyOp4
 70
     1
102
RTVSPropertyOp5
 70
     1
102
RTVSPropertyOp6
 70
     1
102
RTVSPropertyOp7
 70
     1
102
RTVSPropertyOp8
 70
     1
102
RTVSPropertyOp9
 70
     1
102
RTVSPropertyOp10
 70
     1
102
RTVSPropertyOp11
 70
     1
102
RTVSPropertyOp12
 70
     1
102
RTVSPropertyOp13
 70
     1
102
RTVSPropertyOp14
 70
     1
102
RTVSPropertyOp15
 70
     1
102
RTVSPropertyOp16
 70
     1
102
RTVSPropertyOp17
 70
     1
102
RTVSPropertyOp18
 70
     1
102
RTVSPropertyOp19
 70
     1
102
RTVSPropertyOp20
 70
     1
102
RTVSPropertyOp21
 70
     1
102
RTVSPropertyOp22
 70
     1
102
RTVSPropertyOp23
 70
     1
102
RTVSPropertyOp24
 70
     1
102
RTVSPropertyOp25
 70
     1
102
RTVSPropertyOp26
 70
     1
102
RTVSPropertyOp27
 70
     1
102
RTVSPropertyOp28
 70
     1
102
RTVSPropertyOp29
 70
     1
102
RTVSPropertyOp30
 70
     1
102
RTVSPropertyOp31
 70
     1
102
RTVSPropertyOp32
 70
     1
102
RTVSPropertyOp33
 70
     1
102
RTVSPropertyOp34
 70
     1
102
RTVSPropertyOp35
 70
     1
102
RTVSPropertyOp36
 70
     1
102
RTVSPropertyOp37
 70
     1
102
RTVSPropertyOp38
 70
     1
102
RTVSPropertyOp39
 70
     1
102
RTVSPropertyOp40
 70
     1
102
RTVSPropertyOp41
 70
     1
102
RTVSPropertyOp42
 70
     1
102
RTVSPropertyOp43
 70
     1
102
RTVSPropertyOp44
 70
     1
102
RTVSPropertyOp45
 70
     1
102
RTVSPropertyOp46
 70
     1
102
RTVSPropertyOp47
 70
     1
102
RTVSPropertyOp48
 70
     1
102
RTVSPropertyOp49
 70
     1
102
RTVSPropertyOp50
 70
     1
102
RTVSPropertyOp51
 70
     0
102
RTVSPropertyOp52
 70
     0
102
RTVSPropertyOp53
 70
     1
102
RTVSPropertyOp54
 70
     1
102
RTVSPropertyOp55
 70
     1
102
RTVSPropertyOp56
 70
     1
102
RTVSPropertyOp57
 70
     1
102
RTVSPropertyOp58
 70
     1
102
RTVSPropertyOp59
 70
     1
102
RTVSPropertyOp60
 70
     1
102
RTVSPropertyOp61
 70
     1
102
RTVSPropertyOp62
 70
     1
  0
XRECORD
  5
12724
102
{ACAD_REACTORS
330
12723
102
}
330
12723
100
AcDbXrecord
280
     1
330
DC0
  0
XRECORD
  5
11750
102
{ACAD_REACTORS
330
1174F
102
}
330
1174F
100
AcDbXrecord
280
     1
1071
 18597260
1071
 25303744
 70
    25
 70
   104
 10
2.434051674155436
 20
0.0
 30
0.0
 10
5.38047463375938
 20
0.0
 30
0.0
 10
0.0
 20
0.0
 30
-1.0
  0
XRECORD
  5
11751
102
{ACAD_REACTORS
330
1174F
102
}
330
1174F
100
AcDbXrecord
280
     1
1071
  6895636
1071
  9291323
 70
    25
 70
   104
 40
0.0
  0
ENDSEC
  0
EOF
